<?xml version="1.0" standalone="no"?>
<!DOCTYPE svg PUBLIC "-//W3C//DTD SVG 1.1//EN" "http://www.w3.org/Graphics/SVG/1.1/DTD/svg11.dtd" >
<svg xmlns="http://www.w3.org/2000/svg">
<defs>
  <font id="remixicon" horiz-adv-x="2000">
    <font-face font-family="remixicon"
      units-per-em="2000" ascent="2000"
      descent="0" />
    <missing-glyph horiz-adv-x="0" />
    <glyph glyph-name="account-box-fill"
      unicode="&#xEA01;"
      horiz-adv-x="2000" d="M250 1583.75C250 1675.5833333333335 324.4166666666667 1750 416.25 1750H1583.7499999999998C1675.5833333333333 1750 1750 1675.5833333333335 1750 1583.75V416.2500000000003A166.24999999999997 166.24999999999997 0 0 0 1583.7499999999998 250H416.25A166.24999999999997 166.24999999999997 0 0 0 250 416.2500000000003V1583.75zM529.75 500H1487.25A582.6666666666666 582.6666666666666 0 0 1 1008.5 750A582.6666666666666 582.6666666666666 0 0 1 529.75 500zM1000 916.6666666666669A291.6666666666667 291.6666666666667 0 1 1 1000 1500A291.6666666666667 291.6666666666667 0 0 1 1000 916.6666666666669z" />
    <glyph glyph-name="account-box-line"
      unicode="&#xEA02;"
      horiz-adv-x="2000" d="M250 1583.75C250 1675.5833333333335 324.4166666666667 1750 416.25 1750H1583.7499999999998C1675.5833333333333 1750 1750 1675.5833333333335 1750 1583.75V416.2500000000003A166.24999999999997 166.24999999999997 0 0 0 1583.7499999999998 250H416.25A166.24999999999997 166.24999999999997 0 0 0 250 416.2500000000003V1583.75zM416.6666666666667 1583.3333333333335V416.6666666666668H1583.3333333333333V1583.3333333333335H416.6666666666667zM664.3333333333333 485A831.9166666666665 831.9166666666665 0 0 0 518.4166666666666 566.5000000000002A582.8333333333333 582.8333333333333 0 0 0 1008.5 833.3333333333335C1208.5 833.3333333333335 1384.9166666666665 732.75 1489.9999999999998 579.4166666666667A832.9166666666666 832.9166666666666 0 0 0 1346.3333333333333 494.0000000000002A416.08333333333337 416.08333333333337 0 0 1 1008.5 666.6666666666667C865.5833333333334 666.6666666666667 739.3333333333333 594.6666666666667 664.3333333333334 485zM1000 916.6666666666669A291.6666666666667 291.6666666666667 0 1 0 1000 1500A291.6666666666667 291.6666666666667 0 0 0 1000 916.6666666666669zM1000 1083.3333333333335A125 125 0 1 1 1000 1333.3333333333335A125 125 0 0 1 1000 1083.3333333333335z" />
    <glyph glyph-name="account-circle-fill"
      unicode="&#xEA03;"
      horiz-adv-x="2000" d="M1000 1833.3333333333333C1459.9999999999998 1833.3333333333333 1833.3333333333333 1460 1833.3333333333333 1000S1459.9999999999998 166.6666666666668 1000 166.6666666666668S166.6666666666667 540.0000000000002 166.6666666666667 1000S540 1833.3333333333333 1000 1833.3333333333333zM501.9166666666666 715.3333333333335C624.2499999999999 532.8333333333333 807.9166666666666 416.6666666666668 1013.3333333333331 416.6666666666668C1218.6666666666667 416.6666666666668 1402.4166666666667 532.7500000000002 1524.6666666666665 715.3333333333335A747.3333333333333 747.3333333333333 0 0 1 1013.3333333333331 916.6666666666669A747.3333333333333 747.3333333333333 0 0 1 501.9166666666667 715.3333333333335zM1000 1083.3333333333335A250 250 0 1 1 1000 1583.3333333333335A250 250 0 0 1 1000 1083.3333333333335z" />
    <glyph glyph-name="account-circle-line"
      unicode="&#xEA04;"
      horiz-adv-x="2000" d="M1000 166.6666666666668C539.75 166.6666666666668 166.6666666666667 539.75 166.6666666666667 1000S539.75 1833.3333333333333 1000 1833.3333333333333S1833.3333333333333 1460.25 1833.3333333333333 1000S1460.25 166.6666666666668 1000 166.6666666666668zM584.4166666666666 478.6666666666667A663.8333333333333 663.8333333333333 0 0 1 1000 333.3333333333335C1164.1666666666667 333.3333333333335 1314.4166666666665 392.6666666666668 1430.5833333333335 491A581.5833333333333 581.5833333333333 0 0 1 1013.3333333333331 666.6666666666667A581.75 581.75 0 0 1 584.4166666666666 478.6666666666667zM467.9999999999999 598.3333333333335A747.9166666666665 747.9166666666665 0 0 0 1013.3333333333331 833.3333333333335A747.6666666666665 747.6666666666665 0 0 0 1543.4999999999998 613.8333333333335A666.6666666666666 666.6666666666666 0 1 1 467.9999999999998 598.25zM1000 916.6666666666669A333.3333333333333 333.3333333333333 0 1 0 1000 1583.3333333333335A333.3333333333333 333.3333333333333 0 0 0 1000 916.6666666666669zM1000 1083.3333333333335A166.66666666666666 166.66666666666666 0 1 0 1000 1416.6666666666667A166.66666666666666 166.66666666666666 0 0 0 1000 1083.3333333333335z" />
    <glyph glyph-name="account-pin-box-fill"
      unicode="&#xEA05;"
      horiz-adv-x="2000" d="M1166.6666666666665 250L1000 83.3333333333335L833.3333333333333 250H416.25A166.24999999999997 166.24999999999997 0 0 0 250 416.2500000000003V1583.75C250 1675.5833333333335 324.4166666666667 1750 416.25 1750H1583.7499999999998C1675.5833333333333 1750 1750 1675.5833333333335 1750 1583.75V416.2500000000003A166.24999999999997 166.24999999999997 0 0 0 1583.7499999999998 250H1166.6666666666665zM529.75 500H1487.25A582.6666666666666 582.6666666666666 0 0 1 1008.5 750A582.6666666666666 582.6666666666666 0 0 1 529.75 500zM1000 916.6666666666669A291.6666666666667 291.6666666666667 0 1 1 1000 1500A291.6666666666667 291.6666666666667 0 0 1 1000 916.6666666666669z" />
    <glyph glyph-name="account-pin-box-line"
      unicode="&#xEA06;"
      horiz-adv-x="2000" d="M1166.6666666666665 250L1000 83.3333333333335L833.3333333333333 250H416.25A166.24999999999997 166.24999999999997 0 0 0 250 416.2500000000003V1583.75C250 1675.5833333333335 324.4166666666667 1750 416.25 1750H1583.7499999999998C1675.5833333333333 1750 1750 1675.5833333333335 1750 1583.75V416.2500000000003A166.24999999999997 166.24999999999997 0 0 0 1583.7499999999998 250H1166.6666666666665zM1583.3333333333333 416.6666666666668V1583.3333333333335H416.6666666666667V416.6666666666668H902.3333333333331L1000 319L1097.6666666666667 416.6666666666668H1583.3333333333333zM664.3333333333333 485A831.9166666666665 831.9166666666665 0 0 0 518.4166666666666 566.5000000000002A582.8333333333333 582.8333333333333 0 0 0 1008.5 833.3333333333335C1208.5 833.3333333333335 1384.9166666666665 732.75 1489.9999999999998 579.4166666666667A832.9166666666666 832.9166666666666 0 0 0 1346.3333333333333 494.0000000000002A416.08333333333337 416.08333333333337 0 0 1 1008.5 666.6666666666667C865.5833333333334 666.6666666666667 739.3333333333333 594.6666666666667 664.3333333333334 485zM1000 916.6666666666669A291.6666666666667 291.6666666666667 0 1 0 1000 1500A291.6666666666667 291.6666666666667 0 0 0 1000 916.6666666666669zM1000 1083.3333333333335A125 125 0 1 1 1000 1333.3333333333335A125 125 0 0 1 1000 1083.3333333333335z" />
    <glyph glyph-name="account-pin-circle-fill"
      unicode="&#xEA07;"
      horiz-adv-x="2000" d="M1188 188.0000000000002L1000 0L811.9999999999999 188.0000000000002C442.5 273.3333333333335 166.6666666666667 604.6666666666667 166.6666666666667 1000C166.6666666666667 1460 540 1833.3333333333333 1000 1833.3333333333333S1833.3333333333333 1460 1833.3333333333333 1000C1833.3333333333333 604.6666666666667 1557.5 273.3333333333335 1188 188.0000000000002zM501.9166666666666 715.3333333333335C624.2499999999999 532.8333333333333 807.9166666666666 416.6666666666668 1013.3333333333331 416.6666666666668C1218.6666666666667 416.6666666666668 1402.4166666666667 532.7500000000002 1524.6666666666665 715.3333333333335A747.3333333333333 747.3333333333333 0 0 1 1013.3333333333331 916.6666666666669A747.3333333333333 747.3333333333333 0 0 1 501.9166666666667 715.3333333333335zM1000 1083.3333333333335A250 250 0 1 1 1000 1583.3333333333335A250 250 0 0 1 1000 1083.3333333333335z" />
    <glyph glyph-name="account-pin-circle-line"
      unicode="&#xEA08;"
      horiz-adv-x="2000" d="M812.0833333333333 187.9166666666668C442.3333333333333 273.1666666666668 166.6666666666667 604.4166666666667 166.6666666666667 1000C166.6666666666667 1460.25 539.75 1833.3333333333333 1000 1833.3333333333333S1833.3333333333333 1460.25 1833.3333333333333 1000C1833.3333333333333 604.4166666666667 1557.6666666666665 273.1666666666668 1187.9166666666665 187.916666666667L1000 0L812.0833333333334 187.9166666666668zM584.3333333333331 478.5833333333333A662.75 662.75 0 0 1 849.4999999999999 350.3333333333333L896.1666666666666 339.5833333333331L1000 235.6666666666668L1103.9166666666665 339.5833333333333L1150.5833333333333 350.4166666666665A663 663 0 0 1 1430.5833333333335 490.9166666666665A581.5833333333333 581.5833333333333 0 0 1 1013.3333333333331 666.6666666666667C843.6666666666666 666.6666666666667 690.8333333333333 594.1666666666667 584.3333333333334 478.5833333333333zM467.9999999999999 598.3333333333335A747.9166666666665 747.9166666666665 0 0 0 1013.3333333333331 833.3333333333335A747.6666666666665 747.6666666666665 0 0 0 1543.4999999999998 613.8333333333335A666.6666666666666 666.6666666666666 0 1 1 467.9999999999998 598.25zM1000 916.6666666666669A333.3333333333333 333.3333333333333 0 1 0 1000 1583.3333333333335A333.3333333333333 333.3333333333333 0 0 0 1000 916.6666666666669zM1000 1083.3333333333335A166.66666666666666 166.66666666666666 0 1 1 1000 1416.6666666666667A166.66666666666666 166.66666666666666 0 0 1 1000 1083.3333333333335z" />
    <glyph glyph-name="add-box-fill"
      unicode="&#xEA09;"
      horiz-adv-x="2000" d="M333.3333333333333 1750H1666.6666666666665A83.33333333333333 83.33333333333333 0 0 0 1750 1666.6666666666667V333.3333333333335A83.33333333333333 83.33333333333333 0 0 0 1666.6666666666665 250H333.3333333333333A83.33333333333333 83.33333333333333 0 0 0 250 333.3333333333335V1666.6666666666667A83.33333333333333 83.33333333333333 0 0 0 333.3333333333333 1750zM916.6666666666666 1083.3333333333335H583.3333333333333V916.6666666666669H916.6666666666666V583.3333333333335H1083.3333333333333V916.6666666666669H1416.6666666666665V1083.3333333333335H1083.3333333333333V1416.6666666666667H916.6666666666666V1083.3333333333335z" />
    <glyph glyph-name="add-box-line"
      unicode="&#xEA0A;"
      horiz-adv-x="2000" d="M333.3333333333333 1750H1666.6666666666665A83.33333333333333 83.33333333333333 0 0 0 1750 1666.6666666666667V333.3333333333335A83.33333333333333 83.33333333333333 0 0 0 1666.6666666666665 250H333.3333333333333A83.33333333333333 83.33333333333333 0 0 0 250 333.3333333333335V1666.6666666666667A83.33333333333333 83.33333333333333 0 0 0 333.3333333333333 1750zM416.6666666666667 1583.3333333333335V416.6666666666668H1583.3333333333333V1583.3333333333335H416.6666666666667zM916.6666666666666 1083.3333333333335V1416.6666666666667H1083.3333333333333V1083.3333333333335H1416.6666666666665V916.6666666666669H1083.3333333333333V583.3333333333335H916.6666666666666V916.6666666666669H583.3333333333333V1083.3333333333335H916.6666666666666z" />
    <glyph glyph-name="add-circle-fill"
      unicode="&#xEA0B;"
      horiz-adv-x="2000" d="M1000 166.6666666666668C539.75 166.6666666666668 166.6666666666667 539.75 166.6666666666667 1000S539.75 1833.3333333333333 1000 1833.3333333333333S1833.3333333333333 1460.25 1833.3333333333333 1000S1460.25 166.6666666666668 1000 166.6666666666668zM916.6666666666666 1083.3333333333335H583.3333333333333V916.6666666666669H916.6666666666666V583.3333333333335H1083.3333333333333V916.6666666666669H1416.6666666666665V1083.3333333333335H1083.3333333333333V1416.6666666666667H916.6666666666666V1083.3333333333335z" />
    <glyph glyph-name="add-circle-line"
      unicode="&#xEA0C;"
      horiz-adv-x="2000" d="M916.6666666666666 1083.3333333333335V1416.6666666666667H1083.3333333333333V1083.3333333333335H1416.6666666666665V916.6666666666669H1083.3333333333333V583.3333333333335H916.6666666666666V916.6666666666669H583.3333333333333V1083.3333333333335H916.6666666666666zM1000 166.6666666666668C539.75 166.6666666666668 166.6666666666667 539.75 166.6666666666667 1000S539.75 1833.3333333333333 1000 1833.3333333333333S1833.3333333333333 1460.25 1833.3333333333333 1000S1460.25 166.6666666666668 1000 166.6666666666668zM1000 333.3333333333335A666.6666666666666 666.6666666666666 0 1 1 1000 1666.6666666666667A666.6666666666666 666.6666666666666 0 0 1 1000 333.3333333333335z" />
    <glyph glyph-name="add-fill"
      unicode="&#xEA0D;"
      horiz-adv-x="2000" d="M916.6666666666666 1083.3333333333335V1583.3333333333335H1083.3333333333333V1083.3333333333335H1583.3333333333333V916.6666666666669H1083.3333333333333V416.6666666666668H916.6666666666666V916.6666666666669H416.6666666666667V1083.3333333333335z" />
    <glyph glyph-name="add-line"
      unicode="&#xEA0E;"
      horiz-adv-x="2000" d="M916.6666666666666 1083.3333333333335V1583.3333333333335H1083.3333333333333V1083.3333333333335H1583.3333333333333V916.6666666666669H1083.3333333333333V416.6666666666668H916.6666666666666V916.6666666666669H416.6666666666667V1083.3333333333335z" />
    <glyph glyph-name="admin-fill"
      unicode="&#xEA0F;"
      horiz-adv-x="2000" d="M1000 833.3333333333335V166.6666666666668H333.3333333333333A666.6666666666666 666.6666666666666 0 0 0 1000 833.3333333333335zM1000 916.6666666666669C723.75 916.6666666666669 500 1140.4166666666667 500 1416.6666666666667S723.75 1916.6666666666667 1000 1916.6666666666667S1500 1692.9166666666667 1500 1416.6666666666667S1276.2499999999998 916.6666666666669 1000 916.6666666666669zM1750 583.3333333333335H1833.3333333333333V166.6666666666668H1166.6666666666665V583.3333333333335H1250V666.6666666666667A250 250 0 0 0 1750 666.6666666666667V583.3333333333335zM1583.3333333333333 583.3333333333335V666.6666666666667A83.33333333333333 83.33333333333333 0 0 1 1416.6666666666665 666.6666666666667V583.3333333333335H1583.3333333333333z" />
    <glyph glyph-name="admin-line"
      unicode="&#xEA10;"
      horiz-adv-x="2000" d="M1000 833.3333333333335V666.6666666666667A500 500 0 0 1 500 166.6666666666668H333.3333333333333A666.6666666666666 666.6666666666666 0 0 0 1000 833.3333333333335zM1000 916.6666666666669C723.75 916.6666666666669 500 1140.4166666666667 500 1416.6666666666667S723.75 1916.6666666666667 1000 1916.6666666666667S1500 1692.9166666666667 1500 1416.6666666666667S1276.2499999999998 916.6666666666669 1000 916.6666666666669zM1000 1083.3333333333335C1184.1666666666667 1083.3333333333335 1333.3333333333333 1232.5 1333.3333333333333 1416.6666666666667S1184.1666666666667 1750 1000 1750S666.6666666666666 1600.8333333333335 666.6666666666666 1416.6666666666667S815.8333333333333 1083.3333333333335 1000 1083.3333333333335zM1750 583.3333333333335H1833.3333333333333V166.6666666666668H1166.6666666666665V583.3333333333335H1250V666.6666666666667A250 250 0 0 0 1750 666.6666666666667V583.3333333333335zM1583.3333333333333 583.3333333333335V666.6666666666667A83.33333333333333 83.33333333333333 0 0 1 1416.6666666666665 666.6666666666667V583.3333333333335H1583.3333333333333z" />
    <glyph glyph-name="airplay-fill"
      unicode="&#xEA11;"
      horiz-adv-x="2000" d="M1033.3333333333333 872.25L1449.9999999999998 316.6666666666668A41.666666666666664 41.666666666666664 0 0 0 1416.6666666666665 250H583.3333333333333A41.666666666666664 41.666666666666664 0 0 0 549.9999999999999 316.6666666666668L966.6666666666666 872.25A41.666666666666664 41.666666666666664 0 0 0 1033.3333333333333 872.25zM1500 416.6666666666668V583.3333333333335H1666.6666666666665V1583.3333333333335H333.3333333333333V583.3333333333335H500V416.6666666666668H249.3333333333333A82.83333333333334 82.83333333333334 0 0 0 166.6666666666667 500V1666.6666666666667C166.6666666666667 1712.6666666666667 204.5833333333333 1750 249.3333333333333 1750H1750.6666666666665C1796.333333333333 1750 1833.3333333333333 1712.9166666666667 1833.3333333333333 1666.6666666666667V500C1833.3333333333333 454.0000000000002 1795.4166666666667 416.6666666666668 1750.6666666666665 416.6666666666668H1500z" />
    <glyph glyph-name="airplay-line"
      unicode="&#xEA12;"
      horiz-adv-x="2000" d="M1033.3333333333333 872.25L1449.9999999999998 316.6666666666668A41.666666666666664 41.666666666666664 0 0 0 1416.6666666666665 250H583.3333333333333A41.666666666666664 41.666666666666664 0 0 0 549.9999999999999 316.6666666666668L966.6666666666666 872.25A41.666666666666664 41.666666666666664 0 0 0 1033.3333333333333 872.25zM1000 639.166666666667L833.3333333333333 416.6666666666668H1166.6666666666665L1000 639.166666666667zM1500 416.6666666666668V583.3333333333335H1666.6666666666665V1583.3333333333335H333.3333333333333V583.3333333333335H500V416.6666666666668H249.3333333333333A82.83333333333334 82.83333333333334 0 0 0 166.6666666666667 500V1666.6666666666667C166.6666666666667 1712.6666666666667 204.5833333333333 1750 249.3333333333333 1750H1750.6666666666665C1796.333333333333 1750 1833.3333333333333 1712.9166666666667 1833.3333333333333 1666.6666666666667V500C1833.3333333333333 454.0000000000002 1795.4166666666667 416.6666666666668 1750.6666666666665 416.6666666666668H1500z" />
    <glyph glyph-name="alarm-fill"
      unicode="&#xEA13;"
      horiz-adv-x="2000" d="M1000 166.6666666666668A749.9999999999999 749.9999999999999 0 1 0 1000 1666.6666666666667A749.9999999999999 749.9999999999999 0 0 0 1000 166.6666666666668zM1083.3333333333333 916.6666666666669V1333.3333333333335H916.6666666666666V750H1333.3333333333333V916.6666666666669H1083.3333333333333zM145.5833333333334 1476.5L440.1666666666667 1771.0833333333333L558.0833333333333 1653.25L263.3333333333333 1358.5833333333335L145.5833333333334 1476.5zM1559.7499999999998 1771.0833333333333L1854.4166666666663 1476.5L1736.583333333333 1358.5833333333335L1441.9166666666663 1653.25L1559.833333333333 1771.0833333333333z" />
    <glyph glyph-name="alarm-line"
      unicode="&#xEA14;"
      horiz-adv-x="2000" d="M1000 166.6666666666668A749.9999999999999 749.9999999999999 0 1 0 1000 1666.6666666666667A749.9999999999999 749.9999999999999 0 0 0 1000 166.6666666666668zM1000 333.3333333333335A583.3333333333334 583.3333333333334 0 1 1 1000 1500A583.3333333333334 583.3333333333334 0 0 1 1000 333.3333333333335zM1083.3333333333333 916.6666666666669H1333.3333333333333V750H916.6666666666666V1333.3333333333335H1083.3333333333333V916.6666666666669zM145.5833333333334 1476.5L440.1666666666667 1771.0833333333333L558.0833333333333 1653.25L263.3333333333333 1358.5833333333335L145.5833333333334 1476.5zM1559.7499999999998 1771.0833333333333L1854.4166666666663 1476.5L1736.583333333333 1358.5833333333335L1441.9166666666663 1653.25L1559.833333333333 1771.0833333333333z" />
    <glyph glyph-name="alarm-warning-fill"
      unicode="&#xEA15;"
      horiz-adv-x="2000" d="M333.3333333333333 333.3333333333335V833.3333333333335A666.6666666666666 666.6666666666666 0 1 0 1666.6666666666665 833.3333333333335V333.3333333333335H1750V166.6666666666668H250V333.3333333333335H333.3333333333333zM500 833.3333333333335H666.6666666666666A333.3333333333333 333.3333333333333 0 0 0 1000 1166.6666666666667V1333.3333333333335A500 500 0 0 1 500 833.3333333333335zM916.6666666666666 1833.3333333333333H1083.3333333333333V1583.3333333333335H916.6666666666666V1833.3333333333333zM1648.1666666666665 1599.3333333333335L1766 1481.5L1589.3333333333333 1304.75L1471.4166666666665 1422.5833333333335L1648.1666666666665 1599.3333333333335zM234 1481.5L351.8333333333333 1599.3333333333333L528.5833333333333 1422.6666666666665L410.8333333333333 1304.6666666666667L234 1481.5z" />
    <glyph glyph-name="alarm-warning-line"
      unicode="&#xEA16;"
      horiz-adv-x="2000" d="M333.3333333333333 333.3333333333335V833.3333333333335A666.6666666666666 666.6666666666666 0 1 0 1666.6666666666665 833.3333333333335V333.3333333333335H1750V166.6666666666668H250V333.3333333333335H333.3333333333333zM500 333.3333333333335H1500V833.3333333333335A500 500 0 1 1 500 833.3333333333335V333.3333333333335zM916.6666666666666 1833.3333333333333H1083.3333333333333V1583.3333333333335H916.6666666666666V1833.3333333333333zM1648.1666666666665 1599.3333333333335L1766 1481.5L1589.3333333333333 1304.75L1471.4166666666665 1422.5833333333335L1648.1666666666665 1599.3333333333335zM234 1481.5L351.8333333333333 1599.3333333333333L528.5833333333333 1422.6666666666665L410.8333333333333 1304.6666666666667L234 1481.5zM583.3333333333333 833.3333333333335A416.6666666666667 416.6666666666667 0 0 0 1000 1250V1083.3333333333335A250 250 0 0 1 750 833.3333333333335H583.3333333333333z" />
    <glyph glyph-name="album-fill"
      unicode="&#xEA17;"
      horiz-adv-x="2000" d="M1000 1833.3333333333333C1459.9999999999998 1833.3333333333333 1833.3333333333333 1460 1833.3333333333333 1000S1459.9999999999998 166.6666666666668 1000 166.6666666666668S166.6666666666667 540.0000000000002 166.6666666666667 1000S540 1833.3333333333333 1000 1833.3333333333333zM1000 666.6666666666667C1184.4166666666667 666.6666666666667 1333.3333333333333 815.5833333333333 1333.3333333333333 1000S1184.4166666666667 1333.3333333333335 1000 1333.3333333333335S666.6666666666666 1184.4166666666667 666.6666666666666 1000S815.5833333333333 666.6666666666667 1000 666.6666666666667zM1000 1083.3333333333335C1045.8333333333333 1083.3333333333335 1083.3333333333333 1045.8333333333335 1083.3333333333333 1000S1045.8333333333333 916.6666666666669 1000 916.6666666666669S916.6666666666666 954.1666666666669 916.6666666666666 1000S954.1666666666666 1083.3333333333335 1000 1083.3333333333335z" />
    <glyph glyph-name="album-line"
      unicode="&#xEA18;"
      horiz-adv-x="2000" d="M1000 333.3333333333335A666.6666666666666 666.6666666666666 0 1 1 1000 1666.6666666666667A666.6666666666666 666.6666666666666 0 0 1 1000 333.3333333333335zM1000 166.6666666666668C539.75 166.6666666666668 166.6666666666667 539.75 166.6666666666667 1000S539.75 1833.3333333333333 1000 1833.3333333333333S1833.3333333333333 1460.25 1833.3333333333333 1000S1460.25 166.6666666666668 1000 166.6666666666668zM1000 833.3333333333335A166.66666666666666 166.66666666666666 0 1 1 1000 1166.6666666666667A166.66666666666666 166.66666666666666 0 0 1 1000 833.3333333333335zM1000 666.6666666666667A333.3333333333333 333.3333333333333 0 1 0 1000 1333.3333333333335A333.3333333333333 333.3333333333333 0 0 0 1000 666.6666666666667z" />
    <glyph glyph-name="align-bottom"
      unicode="&#xEA19;"
      horiz-adv-x="2000" d="M250 416.6666666666668H1750V250H250V416.6666666666668zM666.6666666666666 916.6666666666669H916.6666666666666L583.3333333333333 583.3333333333335L250 916.6666666666669H500V1750H666.6666666666666V916.6666666666669zM1500 916.6666666666669H1750L1416.6666666666665 583.3333333333335L1083.3333333333333 916.6666666666669H1333.3333333333333V1750H1500V916.6666666666669z" />
    <glyph glyph-name="align-center"
      unicode="&#xEA1A;"
      horiz-adv-x="2000" d="M250 1666.6666666666667H1750V1500H250V1666.6666666666667zM416.6666666666667 416.6666666666668H1583.3333333333333V250H416.6666666666667V416.6666666666668zM250 833.3333333333335H1750V666.6666666666667H250V833.3333333333335zM416.6666666666667 1250H1583.3333333333333V1083.3333333333335H416.6666666666667V1250z" />
    <glyph glyph-name="align-justify"
      unicode="&#xEA1B;"
      horiz-adv-x="2000" d="M250 1666.6666666666667H1750V1500H250V1666.6666666666667zM250 416.6666666666668H1750V250H250V416.6666666666668zM250 833.3333333333335H1750V666.6666666666667H250V833.3333333333335zM250 1250H1750V1083.3333333333335H250V1250z" />
    <glyph glyph-name="align-left"
      unicode="&#xEA1C;"
      horiz-adv-x="2000" d="M250 1666.6666666666667H1750V1500H250V1666.6666666666667zM250 416.6666666666668H1416.6666666666665V250H250V416.6666666666668zM250 833.3333333333335H1750V666.6666666666667H250V833.3333333333335zM250 1250H1416.6666666666665V1083.3333333333335H250V1250z" />
    <glyph glyph-name="align-right"
      unicode="&#xEA1D;"
      horiz-adv-x="2000" d="M250 1666.6666666666667H1750V1500H250V1666.6666666666667zM583.3333333333333 416.6666666666668H1750V250H583.3333333333333V416.6666666666668zM250 833.3333333333335H1750V666.6666666666667H250V833.3333333333335zM583.3333333333333 1250H1750V1083.3333333333335H583.3333333333333V1250z" />
    <glyph glyph-name="align-top"
      unicode="&#xEA1E;"
      horiz-adv-x="2000" d="M250 1750H1750V1583.3333333333335H250V1750zM666.6666666666666 1083.3333333333335V250H500V1083.3333333333335H250L583.3333333333333 1416.6666666666667L916.6666666666666 1083.3333333333335H666.6666666666666zM1500 1083.3333333333335V250H1333.3333333333333V1083.3333333333335H1083.3333333333333L1416.6666666666665 1416.6666666666667L1750 1083.3333333333335H1500z" />
    <glyph glyph-name="align-vertically"
      unicode="&#xEA1F;"
      horiz-adv-x="2000" d="M250 1083.3333333333335H1750V916.6666666666669H250V1083.3333333333335zM1500 500V250H1333.3333333333333V500H1083.3333333333333L1416.6666666666665 833.3333333333335L1750 500H1500zM666.6666666666666 500V250H500V500H250L583.3333333333333 833.3333333333335L916.6666666666666 500H666.6666666666666zM1500 1500H1750L1416.6666666666665 1166.6666666666667L1083.3333333333333 1500H1333.3333333333333V1750H1500V1500zM666.6666666666666 1500H916.6666666666666L583.3333333333333 1166.6666666666667L250 1500H500V1750H666.6666666666666V1500z" />
    <glyph glyph-name="alipay-fill"
      unicode="&#xEA20;"
      horiz-adv-x="2000" d="M1785.1666666666665 720.1666666666667C1465.9999999999998 816.25 1280.5833333333333 873.5 1228.6666666666665 892A1034.1666666666665 1034.1666666666665 0 0 1 1338.6666666666665 1168.6666666666665H1066.6666666666667V1260.6666666666667H1400V1317.3333333333335H1066.6666666666667V1471.3333333333335H938.6666666666669C915.3333333333334 1471.3333333333335 912.6666666666669 1450.6666666666665 912.6666666666669 1450.6666666666665V1318H600V1261.3333333333333H912.6666666666666V1169.3333333333335H656.6666666666666V1118H1175.3333333333333A914.3333333333333 914.3333333333333 0 0 0 1101.3333333333333 936.6666666666669C983.9999999999998 975.3333333333334 918.6666666666666 1002.0000000000002 775.3333333333331 1015.3333333333334C503.9999999999998 1041.3333333333335 441.3333333333332 892.0000000000002 431.3333333333332 800.6666666666667C416.6666666666667 661.3333333333335 540 548.0000000000002 724 548.0000000000002S1030.6666666666667 633.3333333333335 1147.3333333333333 774.6666666666667C1244.5833333333333 728.1666666666667 1425.5 647.5833333333335 1690.1666666666665 532.8333333333335A832.4999999999999 832.4999999999999 0 0 0 1000 166.6666666666668C539.75 166.6666666666668 166.6666666666667 539.75 166.6666666666667 1000S539.75 1833.3333333333333 1000 1833.3333333333333S1833.3333333333333 1460.25 1833.3333333333333 1000A831.9166666666665 831.9166666666665 0 0 0 1785.1666666666665 720.1666666666667zM702.6666666666666 636C508 636 477.3333333333333 759.3333333333333 487.3333333333334 810.6666666666665C497.3333333333334 861.9999999999998 554 928.6666666666666 662.6666666666667 928.6666666666666C787.3333333333334 928.6666666666666 898.6666666666666 896.6666666666665 1032.6666666666667 832C938.0000000000002 708.6666666666665 822.6666666666667 636 702.6666666666669 636z" />
    <glyph glyph-name="alipay-line"
      unicode="&#xEA21;"
      horiz-adv-x="2000" d="M1534 600.8333333333335C1352.9166666666665 680 1224 738.0000000000002 1147.3333333333333 774.6666666666667C1030.6666666666667 633.3333333333335 908 548.0000000000002 724 548.0000000000002S416.6666666666667 661.3333333333335 431.3333333333333 800.6666666666667C441.3333333333333 892.0000000000002 504 1041.3333333333335 775.3333333333333 1015.3333333333334C918.6666666666669 1002.0000000000002 983.9999999999998 975.3333333333334 1101.3333333333333 936.666666666667C1131.3333333333333 992.0000000000002 1156.6666666666667 1053.3333333333335 1175.3333333333333 1118.0000000000002H656.6666666666666V1169.3333333333335H912.6666666666666V1261.3333333333333H600V1318H912.6666666666666V1450.6666666666667S915.3333333333331 1471.3333333333335 938.6666666666666 1471.3333333333335H1066.6666666666667V1317.3333333333335H1400V1260.6666666666667H1066.6666666666667V1168.6666666666667H1338.6666666666665A1034.1666666666665 1034.1666666666665 0 0 0 1228.6666666666665 892.0000000000002C1271.1666666666665 876.8333333333335 1403.4166666666667 835.6666666666667 1625.333333333333 768.4166666666667A666.6666666666666 666.6666666666666 0 1 1 1533.9999999999998 600.75zM1000 166.6666666666668C539.75 166.6666666666668 166.6666666666667 539.75 166.6666666666667 1000S539.75 1833.3333333333333 1000 1833.3333333333333S1833.3333333333333 1460.25 1833.3333333333333 1000S1460.25 166.6666666666668 1000 166.6666666666668zM702.6666666666666 636C822.6666666666666 636 938 708.6666666666665 1032.6666666666665 832C898.6666666666665 896.6666666666665 787.3333333333334 928.6666666666666 662.6666666666665 928.6666666666666C553.9999999999999 928.6666666666666 497.3333333333332 861.9999999999998 487.3333333333332 810.6666666666665C477.3333333333332 759.3333333333333 507.9999999999999 636 702.6666666666665 636z" />
    <glyph glyph-name="amazon-fill"
      unicode="&#xEA22;"
      horiz-adv-x="2000" d="M1832.9999999999995 480.8333333333335C1832.9999999999995 420.25 1799.2499999999998 303.5833333333335 1723.4999999999998 239.5C1708.3333333333333 227.8333333333333 1693.0833333333333 234.4166666666668 1699.7499999999998 251.4166666666668C1721.8333333333333 305.4166666666668 1772.4166666666665 430.3333333333333 1748.6666666666665 459.0833333333335C1731.9999999999998 480.9166666666667 1662.833333333333 479.3333333333333 1603.833333333333 474.25C1576.833333333333 470.8333333333333 1553.2499999999998 469.25 1534.8333333333333 465.5C1517.9166666666665 464.0833333333333 1514.4166666666665 479.0833333333333 1531.4166666666665 490.75C1553.2499999999998 506.1666666666665 1576.8333333333333 517.8333333333333 1603.9166666666665 526.4166666666667C1699.7499999999998 555.0833333333335 1810.5833333333333 537.8333333333335 1826.4166666666667 519.5000000000002C1829.4166666666667 516 1833.0833333333333 506.166666666667 1833.0833333333333 480.9166666666667zM1672.9166666666665 373A618.8333333333333 618.8333333333333 0 0 0 1603.75 327.1666666666665C1426.9166666666667 220.9166666666668 1197.9166666666665 165.2499999999998 998.9166666666669 165.2499999999998C678.6666666666667 165.2499999999998 392.2500000000001 283.3333333333333 174.9166666666668 480.9166666666665C156.3333333333335 496.083333333333 171.7500000000002 518.0833333333333 193.5000000000002 506.1666666666665C427.6666666666668 369.4999999999998 717.5000000000002 286.8333333333333 1017.5833333333334 286.8333333333333C1206.3333333333335 286.8333333333333 1409.916666666667 322.1666666666665 1603.8333333333335 398.1666666666663C1617.3333333333333 403.2499999999998 1632.5000000000002 410.1666666666663 1645.75 414.9999999999998C1676.3333333333335 428.7499999999998 1703.2500000000002 394.75 1672.9166666666667 372.9999999999998zM1158.7499999999998 1292.1666666666665C1158.7499999999998 1378.9166666666665 1162.1666666666665 1430 1133.4166666666665 1473.8333333333333C1107.9166666666665 1509.9166666666665 1063.9999999999998 1531.5833333333333 1002.7499999999998 1528.1666666666665C936.2499999999998 1524.5 864.8333333333333 1480.9166666666665 846.5833333333331 1401C843.0833333333333 1382.6666666666665 832.3333333333333 1364.6666666666665 810.2499999999999 1360.75L607.2499999999999 1386.5833333333333C592.7499999999999 1389.9166666666665 570.7499999999999 1401 577.9166666666665 1430C621.5 1659.3333333333335 817.5 1739.25 1002.7499999999998 1750H1046.3333333333333C1148 1750 1278.5833333333333 1720.9166666666667 1362.1666666666665 1644.6666666666667C1463.5833333333333 1550 1452.8333333333333 1422.8333333333335 1452.8333333333333 1284.6666666666667V957.4166666666669C1452.8333333333333 859.25 1492.5833333333333 815.7500000000002 1532.6666666666665 764.5833333333335C1543.4999999999998 746.3333333333335 1547.1666666666665 724.8333333333335 1528.9166666666663 710.0000000000002C1488.9166666666663 673.7500000000002 1412.7499999999998 608.416666666667 1369.1666666666663 572.1666666666667C1354.6666666666663 561.0833333333335 1328.4999999999995 559.9166666666667 1318.333333333333 568.4166666666665C1254.1666666666663 622.1666666666665 1238.4999999999995 652 1198.7499999999995 706.5833333333333C1129.583333333333 633.9999999999998 1071.583333333333 593.9166666666667 1002.4999999999995 572.1666666666665A586.25 586.25 0 0 0 853.8333333333329 554.1666666666663C679.6666666666663 554.1666666666663 541.6666666666662 662.7499999999998 541.6666666666662 877.4999999999995C541.6666666666662 1048.2499999999995 632.4999999999995 1164.333333333333 766.6666666666663 1219.2499999999995C900.833333333333 1274.2499999999995 1095.8333333333328 1291.7499999999995 1158.6666666666663 1292.0833333333328zM1118.9166666666665 859.5C1162.2499999999998 932.1666666666666 1158.6666666666665 991.6666666666666 1158.6666666666665 1124.9166666666665C1104.4166666666665 1124.9166666666665 1049.8333333333333 1121.1666666666665 1002.7499999999998 1110.0833333333333C915.6666666666666 1084.833333333333 846.5833333333331 1030 846.5833333333331 913.8333333333331C846.5833333333331 822.9999999999998 893.8333333333333 761.1666666666665 973.6666666666666 761.1666666666665C984.6666666666666 761.1666666666665 994.3333333333331 762.4999999999998 1002.7499999999998 764.9166666666665C1058.5833333333333 780.4166666666665 1093.4166666666665 808.4166666666665 1118.9166666666665 859.4999999999998z" />
    <glyph glyph-name="amazon-line"
      unicode="&#xEA23;"
      horiz-adv-x="2000" d="M1302.0833333333333 781.6666666666667C1209.8333333333333 646.75 1074.75 583.0000000000002 916.6666666666666 583.0000000000002C724.6666666666666 583.0000000000002 560.3333333333334 730.7500000000002 583.9166666666666 926.6666666666669C610.1666666666666 1144.0000000000002 778.9166666666666 1237.5 1059.5833333333333 1271.916666666667C1109.6666666666665 1278.0000000000002 1130.4166666666665 1279.75 1238.5 1287.75L1250 1288.5833333333335V1306.5C1250 1456.1666666666667 1161 1558.3333333333335 1041.6666666666665 1558.3333333333335C921.9166666666666 1558.3333333333335 838.3333333333334 1496.0833333333335 787.0833333333333 1347.8333333333335L629.5833333333334 1402.1666666666667C703.5 1616.3333333333335 849.4166666666666 1725 1041.6666666666665 1725C1258.5833333333333 1725 1416.6666666666665 1543.5 1416.6666666666665 1306.5C1416.6666666666665 1085.75 1430.25 910.1666666666669 1456.9166666666667 843.4166666666667C1486.5833333333335 769.0833333333335 1497.4166666666667 750.3333333333335 1530.5833333333333 709.0000000000002L1400.5833333333335 604.7500000000002C1357.0000000000002 659.0833333333337 1337.8333333333335 692.1666666666667 1302.1666666666667 781.5833333333335V781.6666666666667zM1771.4166666666663 287.916666666667C1748.833333333333 271.2500000000003 1709.583333333333 281.166666666667 1727.333333333333 324.5833333333337C1749.4166666666665 378.5833333333337 1772.9166666666665 441.9166666666672 1749.1666666666665 470.5833333333335C1731.6666666666663 491.8333333333335 1710.2499999999998 502.416666666667 1663.583333333333 502.416666666667C1625.2499999999995 502.416666666667 1606.083333333333 497.4166666666672 1580.6666666666663 495.7500000000005C1563.6666666666663 494.666666666667 1556.2499999999998 520.5000000000005 1573.0833333333328 532.4166666666672A246.66666666666663 246.66666666666663 0 0 0 1645.583333333333 568.0833333333339C1741.416666666666 596.7500000000007 1854.3333333333328 581.0000000000007 1868.0833333333328 561.1666666666674C1898.499999999999 517.0000000000007 1851.499999999999 347.0833333333342 1771.416666666666 287.8333333333342zM1672.9166666666665 378.2500000000003A629.5833333333333 629.5833333333333 0 0 0 1603.75 320.3333333333335C1426.9166666666667 185.666666666667 1197.9166666666665 115.3333333333335 998.9166666666669 115.3333333333335C678.6666666666667 115.3333333333335 392.2500000000001 264.75 174.9166666666668 514.916666666667C156.3333333333335 534.0833333333337 171.7500000000002 562.0833333333335 193.5000000000002 546.916666666667C427.6666666666668 373.8333333333337 717.5000000000002 269.1666666666672 1017.5833333333334 269.1666666666672C1206.3333333333335 269.1666666666672 1409.916666666667 313.916666666667 1603.8333333333335 410.2500000000005C1617.3333333333333 416.583333333334 1632.5000000000002 425.2500000000005 1645.75 431.4166666666674C1676.3333333333335 448.9166666666674 1703.2500000000002 405.9166666666672 1672.9166666666667 378.2500000000005zM1250.833333333333 1121.5833333333335C1145.9999999999998 1113.7500000000002 1126.1666666666663 1112.166666666667 1079.833333333333 1106.5000000000002C867.1666666666665 1080.416666666667 763.4166666666664 1022.9166666666669 749.4166666666665 906.666666666667C738.9166666666665 819.7500000000005 816.9166666666665 749.666666666667 916.6666666666666 749.666666666667C1086.583333333333 749.666666666667 1209.7499999999998 852.0000000000002 1251.833333333333 1121.5833333333335H1250.833333333333z" />
    <glyph glyph-name="anchor-fill"
      unicode="&#xEA24;"
      horiz-adv-x="2000" d="M1083.3333333333333 1177.1666666666665V339.3333333333333C1384.9166666666665 377.0833333333333 1623.9166666666667 617.3333333333333 1661.4999999999998 920.3333333333334H1416.6666666666665L1725.3333333333333 1416.6666666666667A836.75 836.75 0 0 0 1833.3333333333333 1004.1666666666669C1833.3333333333333 541.6666666666667 1460.25 166.6666666666668 1000 166.6666666666668S166.6666666666667 541.6666666666667 166.6666666666667 1004.1666666666669C166.6666666666667 1154.166666666667 205.9166666666667 1294.916666666667 274.6666666666667 1416.6666666666667L583.3333333333333 920.3333333333334H338.5C376.0833333333333 617.3333333333335 615.1666666666666 377.0833333333333 916.6666666666666 339.3333333333333V1177.1666666666665A333.49999999999994 333.49999999999994 0 0 0 1000 1833.3333333333333A333.3333333333333 333.3333333333333 0 0 0 1083.3333333333333 1177.166666666667zM1000 1333.3333333333335A166.66666666666666 166.66666666666666 0 1 1 1000 1666.6666666666667A166.66666666666666 166.66666666666666 0 0 1 1000 1333.3333333333335z" />
    <glyph glyph-name="anchor-line"
      unicode="&#xEA25;"
      horiz-adv-x="2000" d="M170.8333333333333 1083.3333333333335H583.3333333333333V916.6666666666669H338.5A666.9999999999999 666.9999999999999 0 0 1 916.6666666666666 338.5000000000003V1177.1666666666665A333.49999999999994 333.49999999999994 0 0 0 1000 1833.3333333333333A333.3333333333333 333.3333333333333 0 0 0 1083.3333333333333 1177.166666666667V338.5000000000003A666.9999999999999 666.9999999999999 0 0 1 1661.4999999999998 916.6666666666669H1416.6666666666665V1083.3333333333335H1829.1666666666663C1831.9166666666663 1055.9166666666665 1833.3333333333333 1028.0833333333335 1833.3333333333333 1000C1833.3333333333333 539.75 1460.25 166.6666666666668 1000 166.6666666666668S166.6666666666667 539.75 166.6666666666667 1000C166.6666666666667 1028.0833333333335 168.0833333333333 1055.9166666666665 170.8333333333333 1083.3333333333335zM1000 1333.3333333333335A166.66666666666666 166.66666666666666 0 1 1 1000 1666.6666666666667A166.66666666666666 166.66666666666666 0 0 1 1000 1333.3333333333335z" />
    <glyph glyph-name="android-fill"
      unicode="&#xEA26;"
      horiz-adv-x="2000" d="M531.8333333333333 1669.3333333333335A746.8333333333333 746.8333333333333 0 0 0 1000 1833.3333333333333C1177.0833333333333 1833.3333333333333 1339.8333333333333 1772 1468.1666666666667 1669.3333333333335L1589.25 1790.4166666666667L1707.0833333333335 1672.5833333333335L1586.0000000000002 1551.5A746.8333333333333 746.8333333333333 0 0 0 1750 1083.3333333333335V1000H250V1083.3333333333335C250 1260.4166666666667 311.3333333333333 1423.1666666666667 414 1551.5L292.9166666666667 1672.5L410.75 1790.3333333333333L531.8333333333334 1669.25zM250 833.3333333333335H1750V250A83.33333333333333 83.33333333333333 0 0 0 1666.6666666666665 166.6666666666668H333.3333333333333A83.33333333333333 83.33333333333333 0 0 0 250 250V833.3333333333335zM750 1250A83.33333333333333 83.33333333333333 0 1 1 750 1416.6666666666667A83.33333333333333 83.33333333333333 0 0 1 750 1250zM1250 1250A83.33333333333333 83.33333333333333 0 1 1 1250 1416.6666666666667A83.33333333333333 83.33333333333333 0 0 1 1250 1250z" />
    <glyph glyph-name="android-line"
      unicode="&#xEA27;"
      horiz-adv-x="2000" d="M1583.3333333333333 916.6666666666669H416.6666666666667V333.3333333333335H1583.3333333333333V916.6666666666669zM1583.3333333333333 1083.3333333333335A583.3333333333334 583.3333333333334 0 0 1 416.6666666666667 1083.3333333333335H1583.3333333333333zM531.8333333333333 1669.3333333333335A746.8333333333333 746.8333333333333 0 0 0 1000 1833.3333333333333C1177.0833333333333 1833.3333333333333 1339.8333333333333 1772 1468.1666666666667 1669.3333333333335L1589.25 1790.4166666666667L1707.0833333333335 1672.5833333333335L1586.0000000000002 1551.5A746.8333333333333 746.8333333333333 0 0 0 1750 1083.3333333333335V250A83.33333333333333 83.33333333333333 0 0 0 1666.6666666666665 166.6666666666668H333.3333333333333A83.33333333333333 83.33333333333333 0 0 0 250 250V1083.3333333333335C250 1260.4166666666667 311.3333333333333 1423.1666666666667 414 1551.5L292.9166666666667 1672.5L410.75 1790.3333333333333L531.8333333333334 1669.25zM750 1250A83.33333333333333 83.33333333333333 0 1 0 750 1416.6666666666667A83.33333333333333 83.33333333333333 0 0 0 750 1250zM1250 1250A83.33333333333333 83.33333333333333 0 1 0 1250 1416.6666666666667A83.33333333333333 83.33333333333333 0 0 0 1250 1250z" />
    <glyph glyph-name="apple-fill"
      unicode="&#xEA28;"
      horiz-adv-x="2000" d="M968.6666666666666 1398.1666666666665C895.6666666666667 1398.1666666666665 782.6666666666666 1481.1666666666665 663.6666666666666 1478.1666666666665C506.6666666666666 1476.1666666666665 362.6666666666667 1387.1666666666665 281.6666666666668 1246.1666666666667C118.6666666666667 963.1666666666669 239.6666666666667 545.166666666667 398.6666666666667 315.1666666666668C476.6666666666667 203.1666666666668 568.6666666666667 77.166666666667 690.6666666666666 81.1666666666667C807.6666666666666 86.1666666666667 851.6666666666666 157.1666666666668 993.6666666666666 157.1666666666668C1134.6666666666665 157.1666666666668 1174.6666666666665 81.1666666666667 1298.6666666666665 84.1666666666665C1424.6666666666665 86.1666666666667 1504.6666666666667 198.1666666666665 1581.6666666666665 311.1666666666665C1670.6666666666667 441.1666666666665 1707.6666666666667 567.1666666666665 1709.6666666666667 574.1666666666665C1706.6666666666665 575.1666666666665 1464.6666666666665 668.1666666666665 1461.6666666666667 948.1666666666666C1459.6666666666667 1182.1666666666665 1652.6666666666667 1294.1666666666665 1661.6666666666667 1299.1666666666665C1551.6666666666667 1460.1666666666665 1382.6666666666667 1478.1666666666665 1323.6666666666665 1482.1666666666665C1169.6666666666665 1494.1666666666665 1040.6666666666665 1398.1666666666665 968.6666666666666 1398.1666666666665zM1228.6666666666665 1634.1666666666665C1293.6666666666665 1712.1666666666665 1336.6666666666665 1821.1666666666667 1324.6666666666665 1929.1666666666663C1231.6666666666665 1925.1666666666663 1119.6666666666665 1867.1666666666663 1052.6666666666665 1789.1666666666667C992.6666666666666 1720.1666666666667 940.6666666666666 1609.1666666666665 954.6666666666666 1503.1666666666667C1057.6666666666665 1495.1666666666667 1163.6666666666665 1556.1666666666667 1228.6666666666665 1634.1666666666667z" />
    <glyph glyph-name="apple-line"
      unicode="&#xEA29;"
      horiz-adv-x="2000" d="M1310.7499999999998 1316C1271.333333333333 1319.0833333333335 1228.9999999999998 1309.6666666666665 1164.1666666666665 1284.9166666666667C1169.6666666666665 1287 1102.333333333333 1260.75 1083.4999999999998 1254.0833333333335C1041.6666666666665 1239.5 1007.2499999999998 1231.5 968.6666666666666 1231.5C930.4999999999998 1231.5 895.3333333333331 1239.1666666666667 854.8333333333333 1252.75C841.9166666666666 1257.166666666667 828.9166666666665 1261.9166666666667 812.7499999999998 1268.25C805.9166666666664 1270.916666666667 780.9166666666665 1280.9166666666667 775.4166666666664 1283C721.4166666666665 1304.1666666666667 690.9999999999998 1312.1666666666667 665.7499999999998 1311.5C569.7499999999998 1310.25 478.8333333333332 1254.8333333333335 426.0833333333332 1163C318.4166666666665 976.0000000000002 377.9999999999998 638.0833333333335 535.4166666666665 410.4166666666668C619.2499999999998 290.0833333333335 665.0833333333331 247.0833333333335 683.5833333333331 247.666666666667C702.083333333333 248.5000000000003 715.6666666666664 252.4166666666668 748.833333333333 266.416666666667L762.7499999999997 272.3333333333337C846.4999999999998 308.0833333333337 905.2499999999995 323.8333333333337 993.6666666666662 323.8333333333337C1078.7499999999998 323.8333333333337 1135.5833333333328 308.3333333333337 1215.9999999999995 273.666666666667L1229.9999999999995 267.666666666667C1263.166666666666 253.5000000000003 1275.166666666666 250.333333333334 1295.9999999999995 250.8333333333335C1325.8333333333328 251.2500000000003 1362.5833333333328 285.5833333333337 1444.166666666666 405.3333333333335C1466.4999999999995 437.916666666667 1486.2499999999993 472.2500000000002 1503.3333333333328 507A612.8333333333333 612.8333333333333 0 0 0 1470.6666666666663 535.9166666666667C1363.2499999999995 638.2500000000002 1296.8333333333328 776.2500000000002 1294.9999999999995 946.7500000000002A552.0833333333333 552.0833333333333 0 0 0 1412.4999999999995 1295.166666666667A343.66666666666663 343.66666666666663 0 0 1 1310.7499999999995 1316.0000000000002zM1323.6666666666665 1482.1666666666665C1382.6666666666665 1478.1666666666665 1551.6666666666663 1460.1666666666665 1661.6666666666663 1299.1666666666667C1652.6666666666663 1294.1666666666665 1459.6666666666665 1182.1666666666667 1461.6666666666665 948.1666666666669C1464.6666666666665 668.1666666666667 1706.6666666666665 575.1666666666667 1709.6666666666665 574.1666666666667C1707.6666666666663 567.1666666666667 1670.6666666666665 441.1666666666668 1581.6666666666663 311.166666666667C1504.6666666666663 198.1666666666668 1424.6666666666663 86.166666666667 1298.6666666666663 84.166666666667C1174.6666666666663 81.1666666666667 1134.6666666666663 157.166666666667 993.6666666666662 157.166666666667C851.6666666666662 157.166666666667 807.6666666666663 86.166666666667 690.6666666666664 81.1666666666672C568.6666666666663 77.1666666666672 476.6666666666664 203.166666666667 398.6666666666664 315.166666666667C239.6666666666665 545.166666666667 118.6666666666664 963.166666666667 281.6666666666664 1246.166666666667C362.6666666666664 1387.166666666667 506.6666666666664 1476.166666666667 663.6666666666664 1478.166666666667C782.6666666666663 1481.166666666667 895.6666666666664 1398.166666666667 968.6666666666664 1398.166666666667C1040.6666666666665 1398.166666666667 1169.6666666666665 1494.166666666667 1323.6666666666663 1482.166666666667zM1228.6666666666665 1634.1666666666665C1163.6666666666665 1556.1666666666665 1057.6666666666665 1495.1666666666665 954.6666666666664 1503.1666666666665C940.6666666666666 1609.1666666666665 992.6666666666664 1720.1666666666665 1052.6666666666665 1789.1666666666665C1119.6666666666665 1867.1666666666663 1231.6666666666663 1925.1666666666663 1324.6666666666663 1929.1666666666663C1336.6666666666663 1821.1666666666663 1293.6666666666663 1712.1666666666665 1228.6666666666665 1634.1666666666665z" />
    <glyph glyph-name="apps-2-fill"
      unicode="&#xEA2A;"
      horiz-adv-x="2000" d="M583.3333333333333 1041.6666666666667A374.99999999999994 374.99999999999994 0 1 0 583.3333333333333 1791.6666666666667A374.99999999999994 374.99999999999994 0 0 0 583.3333333333333 1041.6666666666667zM583.3333333333333 208.3333333333335A374.99999999999994 374.99999999999994 0 1 0 583.3333333333333 958.3333333333334A374.99999999999994 374.99999999999994 0 0 0 583.3333333333333 208.3333333333335zM1416.6666666666665 1041.6666666666667A374.99999999999994 374.99999999999994 0 1 0 1416.6666666666665 1791.6666666666667A374.99999999999994 374.99999999999994 0 0 0 1416.6666666666665 1041.6666666666667zM1416.6666666666665 208.3333333333335A374.99999999999994 374.99999999999994 0 1 0 1416.6666666666665 958.3333333333334A374.99999999999994 374.99999999999994 0 0 0 1416.6666666666665 208.3333333333335z" />
    <glyph glyph-name="apps-2-line"
      unicode="&#xEA2B;"
      horiz-adv-x="2000" d="M541.6666666666666 1041.6666666666667A374.99999999999994 374.99999999999994 0 1 0 541.6666666666666 1791.6666666666667A374.99999999999994 374.99999999999994 0 0 0 541.6666666666666 1041.6666666666667zM583.3333333333333 208.3333333333335A374.99999999999994 374.99999999999994 0 1 0 583.3333333333333 958.3333333333334A374.99999999999994 374.99999999999994 0 0 0 583.3333333333333 208.3333333333335zM1416.6666666666665 1041.6666666666667A374.99999999999994 374.99999999999994 0 1 0 1416.6666666666665 1791.6666666666667A374.99999999999994 374.99999999999994 0 0 0 1416.6666666666665 1041.6666666666667zM1416.6666666666665 208.3333333333335A374.99999999999994 374.99999999999994 0 1 0 1416.6666666666665 958.3333333333334A374.99999999999994 374.99999999999994 0 0 0 1416.6666666666665 208.3333333333335zM541.6666666666666 1208.3333333333335A208.33333333333334 208.33333333333334 0 1 1 541.6666666666666 1625A208.33333333333334 208.33333333333334 0 0 1 541.6666666666666 1208.3333333333335zM583.3333333333333 375A208.33333333333334 208.33333333333334 0 1 1 583.3333333333333 791.6666666666667A208.33333333333334 208.33333333333334 0 0 1 583.3333333333333 375zM1416.6666666666665 1208.3333333333335A208.33333333333334 208.33333333333334 0 1 1 1416.6666666666665 1625A208.33333333333334 208.33333333333334 0 0 1 1416.6666666666665 1208.3333333333335zM1416.6666666666665 375A208.33333333333334 208.33333333333334 0 1 1 1416.6666666666665 791.6666666666667A208.33333333333334 208.33333333333334 0 0 1 1416.6666666666665 375z" />
    <glyph glyph-name="apps-fill"
      unicode="&#xEA2C;"
      horiz-adv-x="2000" d="M562.5 1791.6666666666667A354.1666666666666 354.1666666666666 0 0 0 916.6666666666666 1437.5V1083.3333333333335H562.5A354.1666666666666 354.1666666666666 0 1 0 562.5 1791.6666666666667zM562.5 916.6666666666669H916.6666666666666V562.5A354.1666666666666 354.1666666666666 0 1 0 562.5 916.6666666666669zM1437.5 1791.6666666666667A354.1666666666666 354.1666666666666 0 1 0 1437.5 1083.3333333333335H1083.3333333333333V1437.5A354.1666666666666 354.1666666666666 0 0 0 1437.5 1791.6666666666667zM1083.3333333333333 916.6666666666669H1437.5A354.1666666666666 354.1666666666666 0 1 0 1083.3333333333333 562.5V916.6666666666669z" />
    <glyph glyph-name="apps-line"
      unicode="&#xEA2D;"
      horiz-adv-x="2000" d="M562.5 1791.6666666666667A354.1666666666666 354.1666666666666 0 0 0 916.6666666666666 1437.5V1083.3333333333335H562.5A354.1666666666666 354.1666666666666 0 1 0 562.5 1791.6666666666667zM750 1250V1437.5A187.49999999999997 187.49999999999997 0 1 1 562.5 1250H750zM562.5 916.6666666666669H916.6666666666666V562.5A354.1666666666666 354.1666666666666 0 1 0 562.5 916.6666666666669zM562.5 750A187.49999999999997 187.49999999999997 0 1 1 750 562.5V750H562.5zM1437.5 1791.6666666666667A354.1666666666666 354.1666666666666 0 1 0 1437.5 1083.3333333333335H1083.3333333333333V1437.5A354.1666666666666 354.1666666666666 0 0 0 1437.5 1791.6666666666667zM1437.5 1250A187.49999999999997 187.49999999999997 0 1 1 1250 1437.5V1250H1437.5zM1083.3333333333333 916.6666666666669H1437.5A354.1666666666666 354.1666666666666 0 1 0 1083.3333333333333 562.5V916.6666666666669zM1250 750V562.5A187.49999999999997 187.49999999999997 0 1 1 1437.5 750H1250z" />
    <glyph glyph-name="archive-drawer-fill"
      unicode="&#xEA2E;"
      horiz-adv-x="2000" d="M250 916.6666666666669H1750V249.8333333333333C1750 203.9166666666668 1712.9166666666665 166.6666666666665 1667.25 166.6666666666665H332.75A82.91666666666666 82.91666666666666 0 0 0 250 249.8333333333335V916.6666666666669zM250 1750.1666666666667C250 1796.0833333333333 287.0833333333333 1833.3333333333333 332.75 1833.3333333333333H1667.2499999999998C1712.9166666666665 1833.3333333333333 1749.9999999999995 1796.1666666666667 1749.9999999999995 1750.1666666666667V1083.3333333333335H250V1750.1666666666667zM750 1583.3333333333335V1416.6666666666667H1250V1583.3333333333335H750zM750 666.6666666666667V500H1250V666.6666666666667H750z" />
    <glyph glyph-name="archive-drawer-line"
      unicode="&#xEA2F;"
      horiz-adv-x="2000" d="M250 1750.6666666666667C250 1796.3333333333333 287.0833333333333 1833.3333333333333 332.75 1833.3333333333333H1667.2499999999998A83.33333333333333 83.33333333333333 0 0 0 1749.9999999999995 1750.6666666666667V249.3333333333335A82.74999999999999 82.74999999999999 0 0 0 1667.2499999999998 166.6666666666668H332.75A83.33333333333333 83.33333333333333 0 0 0 250 249.3333333333335V1750.6666666666667zM1583.3333333333333 1083.3333333333335V1666.6666666666667H416.6666666666667V1083.3333333333335H1583.3333333333333zM1583.3333333333333 916.6666666666669H416.6666666666667V333.3333333333335H1583.3333333333333V916.6666666666669zM750 1500H1250V1333.3333333333335H750V1500zM750 750H1250V583.3333333333335H750V750z" />
    <glyph glyph-name="archive-fill"
      unicode="&#xEA30;"
      horiz-adv-x="2000" d="M250 1166.6666666666667H1750V333.0000000000003C1750 287.166666666667 1712.9166666666665 250.0000000000005 1667.25 250.0000000000005H332.75A82.83333333333334 82.83333333333334 0 0 0 250 333V1166.6666666666667zM750 1000V833.3333333333335H1250V1000H750zM166.6666666666667 1666.6666666666667C166.6666666666667 1712.6666666666667 204.5833333333333 1750 249.3333333333333 1750H1750.6666666666665C1796.333333333333 1750 1833.3333333333333 1713 1833.3333333333333 1666.6666666666667V1333.3333333333335H166.6666666666667V1666.6666666666667z" />
    <glyph glyph-name="archive-line"
      unicode="&#xEA31;"
      horiz-adv-x="2000" d="M250 1166.6666666666667H166.6666666666667V1666.4166666666667C166.6666666666667 1712.5833333333335 204.5833333333333 1750 249.3333333333333 1750H1750.6666666666665A82.5 82.5 0 0 0 1833.3333333333333 1666.4166666666667V1166.6666666666667H1750V333.2500000000003A82.99999999999999 82.99999999999999 0 0 0 1667.25 250.0000000000005H332.75A82.99999999999999 82.99999999999999 0 0 0 250 333.25V1166.6666666666667zM1583.3333333333333 1166.6666666666667H416.6666666666667V416.6666666666668H1583.3333333333333V1166.6666666666667zM333.3333333333333 1583.3333333333335V1333.3333333333335H1666.6666666666665V1583.3333333333335H333.3333333333333zM750 1000H1250V833.3333333333335H750V1000z" />
    <glyph glyph-name="arrow-down-circle-fill"
      unicode="&#xEA32;"
      horiz-adv-x="2000" d="M1000 1833.3333333333333C1459.9999999999998 1833.3333333333333 1833.3333333333333 1460 1833.3333333333333 1000S1459.9999999999998 166.6666666666668 1000 166.6666666666668S166.6666666666667 540.0000000000002 166.6666666666667 1000S540 1833.3333333333333 1000 1833.3333333333333zM1083.3333333333333 1000V1333.3333333333335H916.6666666666666V1000H666.6666666666666L1000 666.6666666666667L1333.3333333333333 1000H1083.3333333333333z" />
    <glyph glyph-name="arrow-down-circle-line"
      unicode="&#xEA33;"
      horiz-adv-x="2000" d="M1000 1833.3333333333333C1459.9999999999998 1833.3333333333333 1833.3333333333333 1460 1833.3333333333333 1000S1459.9999999999998 166.6666666666668 1000 166.6666666666668S166.6666666666667 540.0000000000002 166.6666666666667 1000S540 1833.3333333333333 1000 1833.3333333333333zM1000 333.3333333333335C1368.3333333333335 333.3333333333335 1666.6666666666665 631.6666666666665 1666.6666666666665 1000S1368.3333333333335 1666.6666666666667 1000 1666.6666666666667S333.3333333333333 1368.3333333333335 333.3333333333333 1000S631.6666666666666 333.3333333333335 1000 333.3333333333335zM1083.3333333333333 1000H1333.3333333333333L1000 666.6666666666667L666.6666666666666 1000H916.6666666666666V1333.3333333333335H1083.3333333333333V1000z" />
    <glyph glyph-name="arrow-down-fill"
      unicode="&#xEA34;"
      horiz-adv-x="2000" d="M1083.3333333333333 1000H1666.6666666666665L1000 333.3333333333335L333.3333333333333 1000H916.6666666666666V1666.6666666666667H1083.3333333333333z" />
    <glyph glyph-name="arrow-down-line"
      unicode="&#xEA35;"
      horiz-adv-x="2000" d="M1083.3333333333333 652.3333333333333L1530.3333333333333 1099.3333333333335L1648.1666666666667 981.5000000000002L1000 333.3333333333335L351.8333333333334 981.5L469.6666666666666 1099.3333333333333L916.6666666666666 652.3333333333333V1666.6666666666667H1083.3333333333333V652.3333333333333z" />
    <glyph glyph-name="arrow-down-s-fill"
      unicode="&#xEA36;"
      horiz-adv-x="2000" d="M1000 666.6666666666667L500 1166.6666666666667H1500z" />
    <glyph glyph-name="arrow-down-s-line"
      unicode="&#xEA37;"
      horiz-adv-x="2000" d="M1000 902.3333333333331L1412.4999999999998 1314.8333333333333L1530.3333333333333 1197L1000 666.6666666666667L469.6666666666666 1197L587.5 1314.8333333333335z" />
    <glyph glyph-name="arrow-drop-down-fill"
      unicode="&#xEA38;"
      horiz-adv-x="2000" d="M1000 833.3333333333335L666.6666666666666 1166.6666666666667H1333.3333333333333z" />
    <glyph glyph-name="arrow-drop-down-line"
      unicode="&#xEA39;"
      horiz-adv-x="2000" d="M1000 750L646.4166666666666 1103.5833333333335L764.3333333333334 1221.4166666666667L1000 985.6666666666666L1235.6666666666665 1221.4166666666667L1353.583333333333 1103.5833333333335z" />
    <glyph glyph-name="arrow-drop-left-fill"
      unicode="&#xEA3A;"
      horiz-adv-x="2000" d="M750 1000L1083.3333333333333 1333.3333333333335V666.6666666666667z" />
    <glyph glyph-name="arrow-drop-left-line"
      unicode="&#xEA3B;"
      horiz-adv-x="2000" d="M985.6666666666666 1000L1221.4166666666665 764.3333333333335L1103.5833333333333 646.416666666667L750 1000L1103.5833333333333 1353.5833333333335L1221.4166666666665 1235.6666666666665L985.6666666666666 1000z" />
    <glyph glyph-name="arrow-drop-right-fill"
      unicode="&#xEA3C;"
      horiz-adv-x="2000" d="M1166.6666666666665 1000L833.3333333333333 666.6666666666667V1333.3333333333335z" />
    <glyph glyph-name="arrow-drop-right-line"
      unicode="&#xEA3D;"
      horiz-adv-x="2000" d="M1014.3333333333334 1000L778.5833333333333 1235.6666666666665L896.4166666666666 1353.5833333333335L1250 1000L896.4166666666666 646.4166666666665L778.5833333333333 764.3333333333333z" />
    <glyph glyph-name="arrow-drop-up-fill"
      unicode="&#xEA3E;"
      horiz-adv-x="2000" d="M1000 1166.6666666666667L1333.3333333333333 833.3333333333335H666.6666666666666z" />
    <glyph glyph-name="arrow-drop-up-line"
      unicode="&#xEA3F;"
      horiz-adv-x="2000" d="M1000 1014.3333333333334L764.3333333333334 778.5833333333335L646.4166666666666 896.4166666666667L1000 1250L1353.5833333333335 896.4166666666667L1235.6666666666667 778.5833333333335L1000 1014.3333333333334z" />
    <glyph glyph-name="arrow-go-back-fill"
      unicode="&#xEA40;"
      horiz-adv-x="2000" d="M666.6666666666666 1416.6666666666667V1083.3333333333335L166.6666666666667 1500L666.6666666666666 1916.6666666666667V1583.3333333333335H1083.3333333333333A666.6666666666666 666.6666666666666 0 1 0 1083.3333333333333 250H333.3333333333333V416.6666666666668H1083.3333333333333A500 500 0 1 1 1083.3333333333333 1416.6666666666667H666.6666666666666z" />
    <glyph glyph-name="arrow-go-back-line"
      unicode="&#xEA41;"
      horiz-adv-x="2000" d="M485.6666666666667 1416.6666666666667L697 1205.3333333333335L579.1666666666666 1087.5L166.6666666666667 1500L579.1666666666666 1912.5L697 1794.6666666666667L485.6666666666667 1583.3333333333335H1083.3333333333333A666.6666666666666 666.6666666666666 0 1 0 1083.3333333333333 250H333.3333333333333V416.6666666666668H1083.3333333333333A500 500 0 1 1 1083.3333333333333 1416.6666666666667H485.6666666666667z" />
    <glyph glyph-name="arrow-go-forward-fill"
      unicode="&#xEA42;"
      horiz-adv-x="2000" d="M1333.3333333333333 1416.6666666666667H916.6666666666666A500 500 0 1 1 916.6666666666666 416.6666666666668H1666.6666666666665V250H916.6666666666666A666.6666666666666 666.6666666666666 0 1 0 916.6666666666666 1583.3333333333335H1333.3333333333333V1916.6666666666667L1833.3333333333333 1500L1333.3333333333333 1083.3333333333335V1416.6666666666667z" />
    <glyph glyph-name="arrow-go-forward-line"
      unicode="&#xEA43;"
      horiz-adv-x="2000" d="M1514.3333333333333 1416.6666666666667H916.6666666666666A500 500 0 1 1 916.6666666666666 416.6666666666668H1666.6666666666665V250H916.6666666666666A666.6666666666666 666.6666666666666 0 1 0 916.6666666666666 1583.3333333333335H1514.3333333333333L1303 1794.6666666666667L1420.8333333333333 1912.5L1833.3333333333333 1500L1420.8333333333333 1087.5L1303 1205.3333333333335L1514.3333333333333 1416.6666666666667z" />
    <glyph glyph-name="arrow-left-circle-fill"
      unicode="&#xEA44;"
      horiz-adv-x="2000" d="M1000 1833.3333333333333C1459.9999999999998 1833.3333333333333 1833.3333333333333 1460 1833.3333333333333 1000S1459.9999999999998 166.6666666666668 1000 166.6666666666668S166.6666666666667 540.0000000000002 166.6666666666667 1000S540 1833.3333333333333 1000 1833.3333333333333zM1000 1083.3333333333335V1333.3333333333335L666.6666666666666 1000L1000 666.6666666666667V916.6666666666669H1333.3333333333333V1083.3333333333335H1000z" />
    <glyph glyph-name="arrow-left-circle-line"
      unicode="&#xEA45;"
      horiz-adv-x="2000" d="M1000 1833.3333333333333C1459.9999999999998 1833.3333333333333 1833.3333333333333 1460 1833.3333333333333 1000S1459.9999999999998 166.6666666666668 1000 166.6666666666668S166.6666666666667 540.0000000000002 166.6666666666667 1000S540 1833.3333333333333 1000 1833.3333333333333zM1000 333.3333333333335C1368.3333333333335 333.3333333333335 1666.6666666666665 631.6666666666665 1666.6666666666665 1000S1368.3333333333335 1666.6666666666667 1000 1666.6666666666667S333.3333333333333 1368.3333333333335 333.3333333333333 1000S631.6666666666666 333.3333333333335 1000 333.3333333333335zM1000 1083.3333333333335H1333.3333333333333V916.6666666666669H1000V666.6666666666667L666.6666666666666 1000L1000 1333.3333333333335V1083.3333333333335z" />
    <glyph glyph-name="arrow-left-down-fill"
      unicode="&#xEA46;"
      horiz-adv-x="2000" d="M1030 912.5L1442.4999999999998 500H499.8333333333333V1442.6666666666667L912.3333333333334 1030.1666666666667L1383.6666666666665 1501.5833333333335L1501.583333333333 1383.75z" />
    <glyph glyph-name="arrow-left-down-line"
      unicode="&#xEA47;"
      horiz-adv-x="2000" d="M750 867.5L1467.2499999999998 1584.75L1585.0833333333333 1466.9166666666665L867.8333333333334 749.6666666666667H1500V583.0000000000002H583.3333333333333V1499.666666666667H750V867.5833333333335z" />
    <glyph glyph-name="arrow-left-fill"
      unicode="&#xEA48;"
      horiz-adv-x="2000" d="M1000 916.6666666666669V333.3333333333335L333.3333333333333 1000L1000 1666.6666666666667V1083.3333333333335H1666.6666666666665V916.6666666666669z" />
    <glyph glyph-name="arrow-left-line"
      unicode="&#xEA49;"
      horiz-adv-x="2000" d="M652.3333333333334 1083.3333333333335H1666.6666666666665V916.6666666666669H652.3333333333334L1099.3333333333333 469.6666666666667L981.5 351.8333333333333L333.3333333333333 1000L981.4999999999998 1648.1666666666665L1099.333333333333 1530.3333333333335z" />
    <glyph glyph-name="arrow-left-s-fill"
      unicode="&#xEA4A;"
      horiz-adv-x="2000" d="M666.6666666666666 1000L1166.6666666666665 1500V500z" />
    <glyph glyph-name="arrow-left-s-line"
      unicode="&#xEA4B;"
      horiz-adv-x="2000" d="M902.3333333333331 1000L1314.8333333333333 587.5000000000002L1196.9999999999998 469.6666666666667L666.6666666666666 1000L1197 1530.3333333333335L1314.8333333333333 1412.5z" />
    <glyph glyph-name="arrow-left-up-fill"
      unicode="&#xEA4C;"
      horiz-adv-x="2000" d="M1030 1087.75L1501.5 616.416666666667L1383.5833333333335 498.5000000000002L912.2500000000002 969.916666666667L499.7500000000002 557.416666666667V1500.25H1442.4999999999998z" />
    <glyph glyph-name="arrow-left-up-line"
      unicode="&#xEA4D;"
      horiz-adv-x="2000" d="M784.4999999999999 1333.3333333333335L1501.75 616.0833333333335L1383.9166666666665 498.25L666.6666666666666 1215.5V583.3333333333335H500V1500H1416.6666666666665V1333.3333333333335z" />
    <glyph glyph-name="arrow-right-circle-fill"
      unicode="&#xEA4E;"
      horiz-adv-x="2000" d="M1000 1833.3333333333333C1459.9999999999998 1833.3333333333333 1833.3333333333333 1460 1833.3333333333333 1000S1459.9999999999998 166.6666666666668 1000 166.6666666666668S166.6666666666667 540.0000000000002 166.6666666666667 1000S540 1833.3333333333333 1000 1833.3333333333333zM1000 1083.3333333333335H666.6666666666666V916.6666666666669H1000V666.6666666666667L1333.3333333333333 1000L1000 1333.3333333333335V1083.3333333333335z" />
    <glyph glyph-name="arrow-right-circle-line"
      unicode="&#xEA4F;"
      horiz-adv-x="2000" d="M1000 1083.3333333333335V1333.3333333333335L1333.3333333333333 1000L1000 666.6666666666667V916.6666666666669H666.6666666666666V1083.3333333333335H1000zM1000 1833.3333333333333C1459.9999999999998 1833.3333333333333 1833.3333333333333 1460 1833.3333333333333 1000S1459.9999999999998 166.6666666666668 1000 166.6666666666668S166.6666666666667 540.0000000000002 166.6666666666667 1000S540 1833.3333333333333 1000 1833.3333333333333zM1000 333.3333333333335C1368.3333333333335 333.3333333333335 1666.6666666666665 631.6666666666665 1666.6666666666665 1000S1368.3333333333335 1666.6666666666667 1000 1666.6666666666667S333.3333333333333 1368.3333333333335 333.3333333333333 1000S631.6666666666666 333.3333333333335 1000 333.3333333333335z" />
    <glyph glyph-name="arrow-right-down-fill"
      unicode="&#xEA50;"
      horiz-adv-x="2000" d="M969.75 912.5L498.3333333333333 1383.75L616.1666666666666 1501.6666666666667L1087.5833333333333 1030.25L1500 1442.75V500H557.25z" />
    <glyph glyph-name="arrow-right-down-line"
      unicode="&#xEA51;"
      horiz-adv-x="2000" d="M1215.8333333333333 666.3333333333333L498.5 1383.5833333333335L616.3333333333333 1501.4166666666665L1333.5833333333333 784.25V1416.3333333333335H1500.25V499.666666666667H583.5833333333333V666.3333333333335z" />
    <glyph glyph-name="arrow-right-fill"
      unicode="&#xEA52;"
      horiz-adv-x="2000" d="M1000 916.6666666666669H333.3333333333333V1083.3333333333335H1000V1666.6666666666667L1666.6666666666665 1000L1000 333.3333333333335z" />
    <glyph glyph-name="arrow-right-line"
      unicode="&#xEA53;"
      horiz-adv-x="2000" d="M1347.6666666666667 1083.3333333333335L900.6666666666666 1530.3333333333335L1018.4999999999998 1648.1666666666665L1666.6666666666665 1000L1018.5 351.8333333333335L900.6666666666667 469.666666666667L1347.6666666666667 916.6666666666669H333.3333333333333V1083.3333333333335z" />
    <glyph glyph-name="arrow-right-s-fill"
      unicode="&#xEA54;"
      horiz-adv-x="2000" d="M1333.3333333333333 1000L833.3333333333333 500V1500z" />
    <glyph glyph-name="arrow-right-s-line"
      unicode="&#xEA55;"
      horiz-adv-x="2000" d="M1097.6666666666667 1000L685.1666666666667 1412.5L803 1530.3333333333335L1333.3333333333333 1000L802.9999999999999 469.6666666666667L685.1666666666666 587.5000000000002z" />
    <glyph glyph-name="arrow-right-up-fill"
      unicode="&#xEA56;"
      horiz-adv-x="2000" d="M1087.5 970L616.1666666666667 498.5L498.3333333333334 616.4166666666665L969.75 1087.7499999999998L557.25 1500.2499999999998H1500V557.5000000000002z" />
    <glyph glyph-name="arrow-right-up-line"
      unicode="&#xEA57;"
      horiz-adv-x="2000" d="M1333.6666666666667 1215.5L616.4166666666669 498.25L498.5833333333335 616.0833333333335L1215.75 1333.3333333333335H583.6666666666666V1500H1500.333333333333V583.3333333333335H1333.6666666666665V1215.5z" />
    <glyph glyph-name="arrow-up-circle-fill"
      unicode="&#xEA58;"
      horiz-adv-x="2000" d="M1000 1833.3333333333333C1459.9999999999998 1833.3333333333333 1833.3333333333333 1460 1833.3333333333333 1000S1459.9999999999998 166.6666666666668 1000 166.6666666666668S166.6666666666667 540.0000000000002 166.6666666666667 1000S540 1833.3333333333333 1000 1833.3333333333333zM1083.3333333333333 1000H1333.3333333333333L1000 1333.3333333333335L666.6666666666666 1000H916.6666666666666V666.6666666666667H1083.3333333333333V1000z" />
    <glyph glyph-name="arrow-up-circle-line"
      unicode="&#xEA59;"
      horiz-adv-x="2000" d="M1000 1833.3333333333333C1459.9999999999998 1833.3333333333333 1833.3333333333333 1460 1833.3333333333333 1000S1459.9999999999998 166.6666666666668 1000 166.6666666666668S166.6666666666667 540.0000000000002 166.6666666666667 1000S540 1833.3333333333333 1000 1833.3333333333333zM1000 333.3333333333335C1368.3333333333335 333.3333333333335 1666.6666666666665 631.6666666666665 1666.6666666666665 1000S1368.3333333333335 1666.6666666666667 1000 1666.6666666666667S333.3333333333333 1368.3333333333335 333.3333333333333 1000S631.6666666666666 333.3333333333335 1000 333.3333333333335zM1083.3333333333333 1000V666.6666666666667H916.6666666666666V1000H666.6666666666666L1000 1333.3333333333335L1333.3333333333333 1000H1083.3333333333333z" />
    <glyph glyph-name="arrow-up-fill"
      unicode="&#xEA5A;"
      horiz-adv-x="2000" d="M1083.3333333333333 1000V333.3333333333335H916.6666666666666V1000H333.3333333333333L1000 1666.6666666666667L1666.6666666666665 1000z" />
    <glyph glyph-name="arrow-up-line"
      unicode="&#xEA5B;"
      horiz-adv-x="2000" d="M1083.3333333333333 1347.6666666666665V333.3333333333335H916.6666666666666V1347.6666666666665L469.6666666666666 900.6666666666667L351.8333333333334 1018.5L1000 1666.6666666666667L1648.1666666666665 1018.5000000000002L1530.333333333333 900.666666666667L1083.3333333333333 1347.6666666666665z" />
    <glyph glyph-name="arrow-up-s-fill"
      unicode="&#xEA5C;"
      horiz-adv-x="2000" d="M1000 1333.3333333333335L1500 833.3333333333335H500z" />
    <glyph glyph-name="arrow-up-s-line"
      unicode="&#xEA5D;"
      horiz-adv-x="2000" d="M1000 1097.6666666666667L587.5 685.1666666666667L469.6666666666666 803.0000000000002L1000 1333.3333333333335L1530.3333333333333 803L1412.4999999999998 685.1666666666667z" />
    <glyph glyph-name="artboard-2-fill"
      unicode="&#xEA5E;"
      horiz-adv-x="2000" d="M500 1500H1500V500H500V1500zM500 1833.3333333333333H666.6666666666666V1583.3333333333335H500V1833.3333333333333zM500 416.6666666666668H666.6666666666666V166.6666666666668H500V416.6666666666668zM166.6666666666667 1500H416.6666666666667V1333.3333333333335H166.6666666666667V1500zM166.6666666666667 666.6666666666667H416.6666666666667V500H166.6666666666667V666.6666666666667zM1583.3333333333333 1500H1833.3333333333333V1333.3333333333335H1583.3333333333333V1500zM1583.3333333333333 666.6666666666667H1833.3333333333333V500H1583.3333333333333V666.6666666666667zM1333.3333333333333 1833.3333333333333H1500V1583.3333333333335H1333.3333333333333V1833.3333333333333zM1333.3333333333333 416.6666666666668H1500V166.6666666666668H1333.3333333333333V416.6666666666668z" />
    <glyph glyph-name="artboard-2-line"
      unicode="&#xEA5F;"
      horiz-adv-x="2000" d="M666.6666666666666 1333.3333333333335V666.6666666666667H1333.3333333333333V1333.3333333333335H666.6666666666666zM500 1500H1500V500H500V1500zM500 1833.3333333333333H666.6666666666666V1583.3333333333335H500V1833.3333333333333zM500 416.6666666666668H666.6666666666666V166.6666666666668H500V416.6666666666668zM166.6666666666667 1500H416.6666666666667V1333.3333333333335H166.6666666666667V1500zM166.6666666666667 666.6666666666667H416.6666666666667V500H166.6666666666667V666.6666666666667zM1583.3333333333333 1500H1833.3333333333333V1333.3333333333335H1583.3333333333333V1500zM1583.3333333333333 666.6666666666667H1833.3333333333333V500H1583.3333333333333V666.6666666666667zM1333.3333333333333 1833.3333333333333H1500V1583.3333333333335H1333.3333333333333V1833.3333333333333zM1333.3333333333333 416.6666666666668H1500V166.6666666666668H1333.3333333333333V416.6666666666668z" />
    <glyph glyph-name="artboard-fill"
      unicode="&#xEA60;"
      horiz-adv-x="2000" d="M715.5 583.3333333333335H250V750H1750V583.3333333333335H1284.5L1554.75 313.0833333333335L1436.9166666666665 195.25L1083.3333333333333 548.8333333333333V333.3333333333335H916.6666666666666V548.8333333333333L563.0833333333333 195.2499999999998L445.25 313.0833333333333L715.5 583.3333333333335zM416.6666666666667 1750H1583.3333333333333A83.33333333333333 83.33333333333333 0 0 0 1666.6666666666665 1666.6666666666667V833.3333333333335H333.3333333333333V1666.6666666666667A83.33333333333333 83.33333333333333 0 0 0 416.6666666666667 1750z" />
    <glyph glyph-name="artboard-line"
      unicode="&#xEA61;"
      horiz-adv-x="2000" d="M715.5 583.3333333333335H250V750H1750V583.3333333333335H1284.5L1554.75 313.0833333333335L1436.9166666666665 195.25L1083.3333333333333 548.8333333333333V333.3333333333335H916.6666666666666V548.8333333333333L563.0833333333333 195.2499999999998L445.25 313.0833333333333L715.5 583.3333333333335zM416.6666666666667 1750H1583.3333333333333A83.33333333333333 83.33333333333333 0 0 0 1666.6666666666665 1666.6666666666667V833.3333333333335H333.3333333333333V1666.6666666666667A83.33333333333333 83.33333333333333 0 0 0 416.6666666666667 1750zM500 1583.3333333333335V1000H1500V1583.3333333333335H500z" />
    <glyph glyph-name="article-fill"
      unicode="&#xEA62;"
      horiz-adv-x="2000" d="M1666.6666666666665 166.6666666666668H333.3333333333333A83.33333333333333 83.33333333333333 0 0 0 250 250V1750A83.33333333333333 83.33333333333333 0 0 0 333.3333333333333 1833.3333333333333H1666.6666666666665A83.33333333333333 83.33333333333333 0 0 0 1750 1750V250A83.33333333333333 83.33333333333333 0 0 0 1666.6666666666665 166.6666666666668zM583.3333333333333 1500V1166.6666666666667H916.6666666666666V1500H583.3333333333333zM583.3333333333333 1000V833.3333333333335H1416.6666666666665V1000H583.3333333333333zM583.3333333333333 666.6666666666667V500H1416.6666666666665V666.6666666666667H583.3333333333333zM1083.3333333333333 1416.6666666666667V1250H1416.6666666666665V1416.6666666666667H1083.3333333333333z" />
    <glyph glyph-name="article-line"
      unicode="&#xEA63;"
      horiz-adv-x="2000" d="M1666.6666666666665 166.6666666666668H333.3333333333333A83.33333333333333 83.33333333333333 0 0 0 250 250V1750A83.33333333333333 83.33333333333333 0 0 0 333.3333333333333 1833.3333333333333H1666.6666666666665A83.33333333333333 83.33333333333333 0 0 0 1750 1750V250A83.33333333333333 83.33333333333333 0 0 0 1666.6666666666665 166.6666666666668zM1583.3333333333333 333.3333333333335V1666.6666666666667H416.6666666666667V333.3333333333335H1583.3333333333333zM583.3333333333333 1500H916.6666666666666V1166.6666666666667H583.3333333333333V1500zM583.3333333333333 1000H1416.6666666666665V833.3333333333335H583.3333333333333V1000zM583.3333333333333 666.6666666666667H1416.6666666666665V500H583.3333333333333V666.6666666666667zM1083.3333333333333 1416.6666666666667H1416.6666666666665V1250H1083.3333333333333V1416.6666666666667z" />
    <glyph glyph-name="at-fill"
      unicode="&#xEA64;"
      horiz-adv-x="2000" d="M1000 166.6666666666668C539.75 166.6666666666668 166.6666666666667 539.75 166.6666666666667 1000S539.75 1833.3333333333333 1000 1833.3333333333333S1833.3333333333333 1460.25 1833.3333333333333 1000S1460.25 166.6666666666668 1000 166.6666666666668zM1666.6666666666665 1000A666.6666666666666 666.6666666666666 0 1 1 1336 424.0833333333333L1252 568A500 500 0 1 0 1500 1000V916.6666666666669A83.33333333333333 83.33333333333333 0 0 0 1333.3333333333333 916.6666666666669V1250H1220.5A333.3333333333333 333.3333333333333 0 1 1 1226 755A250 250 0 0 1 1666.6666666666665 916.6666666666669V1000zM1000 1166.6666666666667A166.66666666666666 166.66666666666666 0 1 0 1000 833.3333333333335A166.66666666666666 166.66666666666666 0 0 0 1000 1166.6666666666667z" />
    <glyph glyph-name="at-line"
      unicode="&#xEA65;"
      horiz-adv-x="2000" d="M1666.6666666666665 1000A666.6666666666666 666.6666666666666 0 1 1 1369.8333333333333 445.25L1462.333333333333 306.5833333333333A829.4166666666665 829.4166666666665 0 0 0 1000 166.6666666666668C539.75 166.6666666666668 166.6666666666667 539.75 166.6666666666667 1000S539.75 1833.3333333333333 1000 1833.3333333333333S1833.3333333333333 1460.25 1833.3333333333333 1000V875A291.6666666666667 291.6666666666667 0 0 0 1300.3333333333333 711.1666666666667A416.6666666666667 416.6666666666667 0 1 0 1250 1333.3333333333335H1416.6666666666665V875A125 125 0 0 1 1666.6666666666665 875V1000zM1000 1250A250 250 0 1 1 1000 750A250 250 0 0 1 1000 1250z" />
    <glyph glyph-name="attachment-fill"
      unicode="&#xEA66;"
      horiz-adv-x="2000" d="M1749.75 1750.6666666666667L1750 249.3333333333335A83.33333333333333 83.33333333333333 0 0 0 1667.25 166.6666666666668H332.75A82.74999999999999 82.74999999999999 0 0 0 250 249.3333333333335V1750.6666666666667A83.33333333333333 83.33333333333333 0 0 0 332.75 1833.3333333333333H1666.9166666666665C1712.6666666666665 1833.3333333333333 1749.75 1796.3333333333333 1749.75 1750.6666666666667zM750 916.6666666666669V1250A83.33333333333333 83.33333333333333 0 1 0 916.6666666666666 1250V916.6666666666669A83.33333333333333 83.33333333333333 0 0 1 1083.3333333333333 916.6666666666669V1250A250 250 0 0 1 583.3333333333333 1250V916.6666666666669A416.6666666666667 416.6666666666667 0 0 1 1416.6666666666665 916.6666666666669V1333.3333333333335H1250V916.6666666666669A250 250 0 0 0 750 916.6666666666669z" />
    <glyph glyph-name="attachment-line"
      unicode="&#xEA67;"
      horiz-adv-x="2000" d="M1166.6666666666665 875V1333.3333333333335A333.3333333333333 333.3333333333333 0 1 1 500 1333.3333333333335V875A541.6666666666666 541.6666666666666 0 1 1 1583.3333333333333 875V1666.6666666666667H1750V875A708.3333333333331 708.3333333333331 0 1 0 333.3333333333333 875V1333.3333333333335A500 500 0 1 0 1333.3333333333333 1333.3333333333335V875A291.6666666666667 291.6666666666667 0 0 0 750 875V1333.3333333333335H916.6666666666666V875A125 125 0 0 1 1166.6666666666665 875z" />
    <glyph glyph-name="award-fill"
      unicode="&#xEA68;"
      horiz-adv-x="2000" d="M1416.6666666666665 729.5833333333335V156.916666666667A41.666666666666664 41.666666666666664 0 0 0 1353.583333333333 121.1666666666672L1000 333.3333333333335L646.4166666666666 121.1666666666668A41.666666666666664 41.666666666666664 0 0 0 583.3333333333333 157.0000000000002V729.5000000000002A666.6666666666666 666.6666666666666 0 1 0 1416.6666666666665 729.5000000000002zM1000 750A500 500 0 1 1 1000 1750A500 500 0 0 1 1000 750zM1000 916.6666666666669A333.3333333333333 333.3333333333333 0 1 0 1000 1583.3333333333335A333.3333333333333 333.3333333333333 0 0 0 1000 916.6666666666669z" />
    <glyph glyph-name="award-line"
      unicode="&#xEA69;"
      horiz-adv-x="2000" d="M1416.6666666666665 729.5833333333335V156.916666666667A41.666666666666664 41.666666666666664 0 0 0 1353.583333333333 121.1666666666672L1000 333.3333333333335L646.4166666666666 121.1666666666668A41.666666666666664 41.666666666666664 0 0 0 583.3333333333333 157.0000000000002V729.5000000000002A666.6666666666666 666.6666666666666 0 1 0 1416.6666666666665 729.5000000000002zM750 631.8333333333335V377.6666666666668L1000 527.6666666666667L1250 377.6666666666668V631.8333333333335A664.8333333333333 664.8333333333333 0 0 0 1000 583.3333333333335A664.8333333333333 664.8333333333333 0 0 0 750 631.8333333333335zM1000 750A500 500 0 1 1 1000 1750A500 500 0 0 1 1000 750z" />
    <glyph glyph-name="baidu-fill"
      unicode="&#xEA6A;"
      horiz-adv-x="2000" d="M493.9166666666666 958.5833333333334C665.8333333333333 995.5 642.4166666666666 1201 637.2499999999999 1245.9166666666667C628.8333333333333 1315.0833333333335 547.4166666666665 1436.0833333333335 436.8333333333333 1426.5C297.6666666666666 1414 277.4166666666666 1213.0833333333335 277.4166666666666 1213.0833333333335C258.5833333333332 1120.1666666666667 322.4166666666666 921.6666666666669 493.9166666666665 958.5833333333334zM676.4166666666665 601.25C671.4166666666665 586.8333333333335 660.1666666666665 549.9166666666667 669.9166666666666 517.7500000000002C689.0833333333333 445.5833333333335 751.7499999999999 442.3333333333335 751.7499999999999 442.3333333333335H841.7499999999999V662.3333333333335H745.3333333333334C702.0000000000001 649.5000000000002 681.1666666666667 615.75 676.4166666666667 601.25zM812.9166666666665 1303.0833333333335C907.9166666666666 1303.0833333333335 984.5833333333331 1412.4166666666667 984.5833333333331 1547.5C984.5833333333331 1682.5 907.9166666666666 1791.6666666666667 812.9166666666665 1791.6666666666667C718.1666666666665 1791.6666666666667 641.2499999999999 1682.5 641.2499999999999 1547.5C641.2499999999999 1412.4166666666667 718.1666666666665 1303.0833333333335 812.9166666666665 1303.0833333333335zM1221.9166666666665 1287C1348.7499999999998 1270.5 1430.3333333333335 1405.9166666666667 1446.5833333333335 1508.5833333333335C1463.166666666667 1611.0833333333335 1381.2500000000002 1730.0833333333335 1291.4166666666667 1750.5833333333335C1201.4166666666667 1771.25 1089 1627 1078.75 1533.0833333333335C1066.5 1418.0833333333335 1095.1666666666667 1303.25 1221.9166666666667 1287zM1221.9166666666665 999.6666666666669C1066.5 1241.75 845.8333333333334 1143.25 771.9166666666666 1020.0833333333334C698.4999999999999 897 583.9166666666666 819.25 567.6666666666666 798.5833333333335C551.1666666666665 778.25 330.5 659.1666666666667 379.5 441.5833333333335C428.4166666666666 224.1666666666665 600.4999999999999 228.2500000000003 600.4999999999999 228.2500000000003S727.25 215.7500000000002 874.3333333333333 248.75C1021.4999999999998 281.3333333333333 1148.1666666666665 240.5833333333335 1148.1666666666665 240.5833333333335S1491.9166666666665 125.5833333333335 1585.9166666666665 347.0833333333333C1679.9166666666665 568.75 1532.833333333333 683.5833333333333 1532.833333333333 683.5833333333333S1336.4999999999995 835.5 1221.8333333333333 999.6666666666666zM721.25 353.8333333333337C624.7500000000001 373.0833333333337 586.3333333333334 438.916666666667 581.5000000000001 450.1666666666668C576.7500000000001 461.5833333333335 549.3333333333334 514.5 563.8333333333335 604.5833333333337C605.5000000000001 739.5000000000002 724.4166666666667 749.166666666667 724.4166666666667 749.166666666667H843.4166666666669V895.4166666666667L944.6666666666669 893.7500000000002V353.8333333333337H721.3333333333335zM1103.75 355.4166666666668C1004.0833333333334 381.0833333333335 999.5000000000002 451.916666666667 999.5000000000002 451.916666666667V736.2500000000002L1103.75 737.9166666666667V482.416666666667C1110.1666666666667 455.0833333333335 1144 450.1666666666668 1144 450.1666666666668H1249.9166666666667V736.2500000000002H1360.9166666666667V355.4166666666668H1103.7500000000002zM1724.9166666666667 1114.5833333333335C1724.9166666666667 1163.75 1684.0833333333335 1311.5833333333335 1532.8333333333335 1311.5833333333335C1381.2500000000002 1311.5833333333335 1361 1172 1361 1073.3333333333335C1361 979.1666666666669 1368.9166666666665 847.7500000000002 1557.1666666666665 851.9166666666667C1745.4999999999998 856.0833333333335 1724.9166666666665 1065.25 1724.9166666666665 1114.5833333333335z" />
    <glyph glyph-name="baidu-line"
      unicode="&#xEA6B;"
      horiz-adv-x="2000" d="M630.3333333333333 393.3333333333333A807.4999999999999 807.4999999999999 0 0 1 838.3333333333334 411.4166666666665A733.3333333333333 733.3333333333333 0 0 0 1086.6666666666667 422.3333333333333C1132.25 416.75 1168.75 408.5833333333333 1194 400.9166666666665C1283.8333333333333 378 1411.5000000000002 382.3333333333333 1444.4166666666667 435.0833333333331C1468.6666666666667 474.083333333333 1465.5 500.6666666666663 1442.25 535A157.16666666666666 157.16666666666666 0 0 1 1424.5833333333335 556.6666666666667A2083.833333333333 2083.833333333333 0 0 0 1362.666666666667 608.1666666666665A2134.833333333333 2134.833333333333 0 0 0 1216.5833333333335 746.5A1345.9166666666665 1345.9166666666665 0 0 0 1085.166666666667 904.25L1082.166666666667 908.6666666666669C1020.3333333333336 1003.5833333333334 952.3333333333336 997.5833333333334 915.3333333333338 935.0833333333334A800.3333333333333 800.3333333333333 0 0 0 835.7500000000003 824.1666666666667C801.5833333333337 784.0000000000002 766.5833333333337 750 727.0000000000005 716.0833333333335C716.7500000000005 707.3333333333333 685.0833333333337 681.0833333333335 692.666666666667 687.4166666666667C692.3333333333337 687.1666666666667 691.2500000000005 686.1666666666667 696.9166666666671 693.3333333333335C688.7500000000003 683.3333333333335 617.7500000000003 620.2500000000002 596.916666666667 596.5000000000002C554.0000000000003 547.916666666667 536.6666666666671 506.5000000000002 543.166666666667 473.1666666666667C549.166666666667 441.8333333333335 561.416666666667 424.2500000000003 580.666666666667 411.0833333333335A119.33333333333331 119.33333333333331 0 0 1 620.666666666667 393.9166666666668L630.3333333333336 393.3333333333333zM1221.8333333333333 999.6666666666666C1336.5 835.5 1532.833333333333 683.5833333333333 1532.833333333333 683.5833333333333S1704.7499999999998 537.9166666666665 1585.9166666666665 347.0833333333333C1467.0833333333333 156.25 1148.1666666666665 240.5833333333335 1148.1666666666665 240.5833333333335S1021.4999999999998 281.4166666666668 874.3333333333333 248.75C727.2499999999999 215.8333333333335 600.4999999999999 228.3333333333333 600.4999999999999 228.3333333333333S416.6666666666667 248.75 379.5 441.5833333333335C342.3333333333334 634.4166666666667 551.1666666666667 778.25 567.6666666666666 798.5833333333333C583.9166666666666 819.1666666666665 693.6666666666666 888 771.9999999999999 1020.0833333333331C850.3333333333331 1152.25 1070.5833333333333 1231.75 1221.8333333333333 999.6666666666666zM1683.4166666666665 1118C1683.4166666666665 1079.8333333333333 1699.25 918.5833333333331 1553.9999999999998 915.3333333333331C1408.8333333333333 912.1666666666666 1402.6666666666667 1013.5 1402.6666666666667 1086.1666666666665C1402.6666666666667 1162.25 1418.3333333333333 1269.9166666666665 1535.1666666666667 1269.9166666666665C1651.8333333333333 1269.9166666666665 1683.4166666666665 1155.8333333333335 1683.4166666666665 1117.9166666666665zM1230.9166666666667 1349.4166666666665C1132.5833333333333 1362.0833333333333 1110.3333333333335 1451.25 1119.8333333333333 1540.5C1127.8333333333333 1613.4166666666665 1215.0833333333335 1725.4166666666665 1284.9166666666667 1709.3333333333333C1354.6666666666665 1693.5 1418.25 1601 1405.4166666666667 1521.5C1392.8333333333335 1441.75 1329.5000000000002 1336.6666666666665 1230.9166666666667 1349.4166666666665zM812.9166666666666 1380C741.2500000000001 1380 682.9166666666666 1462.75 682.9166666666666 1565C682.9166666666666 1667.25 741.1666666666666 1750 812.9166666666666 1750C884.8333333333333 1750 942.9166666666669 1667.25 942.9166666666669 1565C942.9166666666669 1462.75 884.8333333333335 1380 812.9166666666666 1380zM496.8333333333334 999.5C355.5833333333333 969.0833333333331 303.0000000000001 1132.5833333333335 318.5 1209.0833333333335C318.5 1209.0833333333335 335.1666666666667 1374.6666666666667 449.8333333333334 1384.9166666666665C540.9166666666666 1392.8333333333335 608 1293.1666666666667 614.9166666666666 1236.1666666666665C619.1666666666666 1199.1666666666665 638.5 1029.9166666666667 496.8333333333334 999.5z" />
    <glyph glyph-name="ball-pen-fill"
      unicode="&#xEA6C;"
      horiz-adv-x="2000" d="M1487.4166666666665 1016.0000000000002L1428.4999999999998 1074.9166666666667L603.4999999999999 249.916666666667H250V603.5000000000005L1192.75 1546.3333333333335L1664.1666666666665 1074.9166666666667A83.33333333333333 83.33333333333333 0 0 0 1664.1666666666665 957.0833333333334L1074.9999999999998 367.8333333333335L957.0833333333331 485.666666666667L1487.4166666666665 1016.0000000000005zM1546.3333333333333 1782L1782.0833333333333 1546.3333333333335A83.33333333333333 83.33333333333333 0 0 0 1782.0833333333333 1428.5L1664.1666666666665 1310.5833333333335L1310.6666666666665 1664.1666666666667L1428.4999999999998 1782A83.33333333333333 83.33333333333333 0 0 0 1546.3333333333333 1782z" />
    <glyph glyph-name="ball-pen-line"
      unicode="&#xEA6D;"
      horiz-adv-x="2000" d="M1487.4166666666665 1016.0000000000002L1428.4999999999998 1074.9166666666667L603.4999999999999 249.916666666667H250V603.5000000000005L1192.75 1546.3333333333335L1664.1666666666665 1074.9166666666667A83.33333333333333 83.33333333333333 0 0 0 1664.1666666666665 957.0833333333334L1074.9999999999998 367.8333333333335L957.0833333333331 485.666666666667L1487.4166666666665 1016.0000000000005zM1310.6666666666665 1192.75L1192.7499999999998 1310.5833333333335L416.6666666666667 534.5000000000002V416.5833333333337H534.5L1310.6666666666665 1192.7500000000002zM1546.3333333333333 1782L1782.0833333333333 1546.3333333333335A83.33333333333333 83.33333333333333 0 0 0 1782.0833333333333 1428.5L1664.1666666666665 1310.5833333333335L1310.6666666666665 1664.1666666666667L1428.4999999999998 1782A83.33333333333333 83.33333333333333 0 0 0 1546.3333333333333 1782z" />
    <glyph glyph-name="bank-card-2-fill"
      unicode="&#xEA6E;"
      horiz-adv-x="2000" d="M1833.3333333333333 1083.3333333333335V333.3333333333335A83.33333333333333 83.33333333333333 0 0 0 1750 250H250A83.33333333333333 83.33333333333333 0 0 0 166.6666666666667 333.3333333333335V1083.3333333333335H1833.3333333333333zM1833.3333333333333 1416.6666666666667H166.6666666666667V1666.6666666666667A83.33333333333333 83.33333333333333 0 0 0 250 1750H1750A83.33333333333333 83.33333333333333 0 0 0 1833.3333333333333 1666.6666666666667V1416.6666666666667z" />
    <glyph glyph-name="bank-card-2-line"
      unicode="&#xEA6F;"
      horiz-adv-x="2000" d="M250 1750H1750A83.33333333333333 83.33333333333333 0 0 0 1833.3333333333333 1666.6666666666667V333.3333333333335A83.33333333333333 83.33333333333333 0 0 0 1750 250H250A83.33333333333333 83.33333333333333 0 0 0 166.6666666666667 333.3333333333335V1666.6666666666667A83.33333333333333 83.33333333333333 0 0 0 250 1750zM1666.6666666666665 1000H333.3333333333333V416.6666666666668H1666.6666666666665V1000zM1666.6666666666665 1333.3333333333335V1583.3333333333335H333.3333333333333V1333.3333333333335H1666.6666666666665z" />
    <glyph glyph-name="bank-card-fill"
      unicode="&#xEA70;"
      horiz-adv-x="2000" d="M1833.3333333333333 1166.6666666666667V333.3333333333335A83.33333333333333 83.33333333333333 0 0 0 1750 250H250A83.33333333333333 83.33333333333333 0 0 0 166.6666666666667 333.3333333333335V1166.6666666666667H1833.3333333333333zM1833.3333333333333 1333.3333333333335H166.6666666666667V1666.6666666666667A83.33333333333333 83.33333333333333 0 0 0 250 1750H1750A83.33333333333333 83.33333333333333 0 0 0 1833.3333333333333 1666.6666666666667V1333.3333333333335zM1250 666.6666666666667V500H1583.3333333333333V666.6666666666667H1250z" />
    <glyph glyph-name="bank-card-line"
      unicode="&#xEA71;"
      horiz-adv-x="2000" d="M250 1750H1750A83.33333333333333 83.33333333333333 0 0 0 1833.3333333333333 1666.6666666666667V333.3333333333335A83.33333333333333 83.33333333333333 0 0 0 1750 250H250A83.33333333333333 83.33333333333333 0 0 0 166.6666666666667 333.3333333333335V1666.6666666666667A83.33333333333333 83.33333333333333 0 0 0 250 1750zM1666.6666666666665 1083.3333333333335H333.3333333333333V416.6666666666668H1666.6666666666665V1083.3333333333335zM1666.6666666666665 1250V1583.3333333333335H333.3333333333333V1250H1666.6666666666665zM1166.6666666666665 750H1500V583.3333333333335H1166.6666666666665V750z" />
    <glyph glyph-name="bank-fill"
      unicode="&#xEA72;"
      horiz-adv-x="2000" d="M166.6666666666667 333.3333333333335H1833.3333333333333V166.6666666666668H166.6666666666667V333.3333333333335zM333.3333333333333 1000H500V416.6666666666668H333.3333333333333V1000zM750 1000H916.6666666666666V416.6666666666668H750V1000zM1083.3333333333333 1000H1250V416.6666666666668H1083.3333333333333V1000zM1500 1000H1666.6666666666665V416.6666666666668H1500V1000zM166.6666666666667 1416.6666666666667L1000 1833.3333333333333L1833.3333333333333 1416.6666666666667V1083.3333333333335H166.6666666666667V1416.6666666666667zM1000 1333.3333333333335A83.33333333333333 83.33333333333333 0 1 1 1000 1500A83.33333333333333 83.33333333333333 0 0 1 1000 1333.3333333333335z" />
    <glyph glyph-name="bank-line"
      unicode="&#xEA73;"
      horiz-adv-x="2000" d="M166.6666666666667 333.3333333333335H1833.3333333333333V166.6666666666668H166.6666666666667V333.3333333333335zM333.3333333333333 1000H500V416.6666666666668H333.3333333333333V1000zM750 1000H916.6666666666666V416.6666666666668H750V1000zM1083.3333333333333 1000H1250V416.6666666666668H1083.3333333333333V1000zM1500 1000H1666.6666666666665V416.6666666666668H1500V1000zM166.6666666666667 1416.6666666666667L1000 1833.3333333333333L1833.3333333333333 1416.6666666666667V1083.3333333333335H166.6666666666667V1416.6666666666667zM333.3333333333333 1313.6666666666665V1250H1666.6666666666665V1313.6666666666665L1000 1647L333.3333333333333 1313.6666666666665zM1000 1333.3333333333335A83.33333333333333 83.33333333333333 0 1 0 1000 1500A83.33333333333333 83.33333333333333 0 0 0 1000 1333.3333333333335z" />
    <glyph glyph-name="bar-chart-2-fill"
      unicode="&#xEA74;"
      horiz-adv-x="2000" d="M166.6666666666667 916.6666666666669H666.6666666666666V250H166.6666666666667V916.6666666666669zM750 1750H1250V250H750V1750zM1333.3333333333333 1333.3333333333335H1833.3333333333333V250H1333.3333333333333V1333.3333333333335z" />
    <glyph glyph-name="bar-chart-2-line"
      unicode="&#xEA75;"
      horiz-adv-x="2000" d="M166.6666666666667 916.6666666666669H666.6666666666666V250H166.6666666666667V916.6666666666669zM1333.3333333333333 1333.3333333333335H1833.3333333333333V250H1333.3333333333333V1333.3333333333335zM750 1750H1250V250H750V1750zM333.3333333333333 750V416.6666666666668H500V750H333.3333333333333zM916.6666666666666 1583.3333333333335V416.6666666666668H1083.3333333333333V1583.3333333333335H916.6666666666666zM1500 1166.6666666666667V416.6666666666668H1666.6666666666665V1166.6666666666667H1500z" />
    <glyph glyph-name="bar-chart-box-fill"
      unicode="&#xEA76;"
      horiz-adv-x="2000" d="M250 1750H1750A83.33333333333333 83.33333333333333 0 0 0 1833.3333333333333 1666.6666666666667V333.3333333333335A83.33333333333333 83.33333333333333 0 0 0 1750 250H250A83.33333333333333 83.33333333333333 0 0 0 166.6666666666667 333.3333333333335V1666.6666666666667A83.33333333333333 83.33333333333333 0 0 0 250 1750zM583.3333333333333 916.6666666666669V583.3333333333335H750V916.6666666666669H583.3333333333333zM916.6666666666666 1416.6666666666667V583.3333333333335H1083.3333333333333V1416.6666666666667H916.6666666666666zM1250 1166.6666666666667V583.3333333333335H1416.6666666666665V1166.6666666666667H1250z" />
    <glyph glyph-name="bar-chart-box-line"
      unicode="&#xEA77;"
      horiz-adv-x="2000" d="M250 1750H1750A83.33333333333333 83.33333333333333 0 0 0 1833.3333333333333 1666.6666666666667V333.3333333333335A83.33333333333333 83.33333333333333 0 0 0 1750 250H250A83.33333333333333 83.33333333333333 0 0 0 166.6666666666667 333.3333333333335V1666.6666666666667A83.33333333333333 83.33333333333333 0 0 0 250 1750zM333.3333333333333 1583.3333333333335V416.6666666666668H1666.6666666666665V1583.3333333333335H333.3333333333333zM583.3333333333333 916.6666666666669H750V583.3333333333335H583.3333333333333V916.6666666666669zM916.6666666666666 1416.6666666666667H1083.3333333333333V583.3333333333335H916.6666666666666V1416.6666666666667zM1250 1166.6666666666667H1416.6666666666665V583.3333333333335H1250V1166.6666666666667z" />
    <glyph glyph-name="bar-chart-fill"
      unicode="&#xEA78;"
      horiz-adv-x="2000" d="M250 1000H583.3333333333333V250H250V1000zM1416.6666666666665 1333.3333333333335H1750V250H1416.6666666666665V1333.3333333333335zM833.3333333333333 1833.3333333333333H1166.6666666666665V250H833.3333333333333V1833.3333333333333z" />
    <glyph glyph-name="bar-chart-line"
      unicode="&#xEA79;"
      horiz-adv-x="2000" d="M250 1000H416.6666666666667V250H250V1000zM1583.3333333333333 1333.3333333333335H1750V250H1583.3333333333333V1333.3333333333335zM916.6666666666666 1833.3333333333333H1083.3333333333333V250H916.6666666666666V1833.3333333333333z" />
    <glyph glyph-name="barcode-fill"
      unicode="&#xEA7A;"
      horiz-adv-x="2000" d="M166.6666666666667 1666.6666666666667H333.3333333333333V333.3333333333335H166.6666666666667V1666.6666666666667zM500 1666.6666666666667H666.6666666666666V333.3333333333335H500V1666.6666666666667zM750 1666.6666666666667H1000V333.3333333333335H750V1666.6666666666667zM1083.3333333333333 1666.6666666666667H1250V333.3333333333335H1083.3333333333333V1666.6666666666667zM1333.3333333333333 1666.6666666666667H1500V333.3333333333335H1333.3333333333333V1666.6666666666667zM1583.3333333333333 1666.6666666666667H1833.3333333333333V333.3333333333335H1583.3333333333333V1666.6666666666667z" />
    <glyph glyph-name="barcode-line"
      unicode="&#xEA7B;"
      horiz-adv-x="2000" d="M166.6666666666667 1666.6666666666667H333.3333333333333V333.3333333333335H166.6666666666667V1666.6666666666667zM500 1666.6666666666667H583.3333333333333V333.3333333333335H500V1666.6666666666667zM666.6666666666666 1666.6666666666667H833.3333333333333V333.3333333333335H666.6666666666666V1666.6666666666667zM916.6666666666666 1666.6666666666667H1083.3333333333333V333.3333333333335H916.6666666666666V1666.6666666666667zM1166.6666666666665 1666.6666666666667H1333.3333333333333V333.3333333333335H1166.6666666666665V1666.6666666666667zM1416.6666666666665 1666.6666666666667H1500V333.3333333333335H1416.6666666666665V1666.6666666666667zM1583.3333333333333 1666.6666666666667H1833.3333333333333V333.3333333333335H1583.3333333333333V1666.6666666666667z" />
    <glyph glyph-name="barricade-fill"
      unicode="&#xEA7C;"
      horiz-adv-x="2000" d="M1629.6666666666667 416.6666666666668H1750V250H250V416.6666666666668H370.3333333333333L444.5 750H1555.5833333333335L1629.6666666666667 416.6666666666668zM1444.4166666666665 1250L1518.5833333333333 916.6666666666669H481.4166666666666L555.5 1250H1444.3333333333333zM1407.4166666666665 1416.6666666666667H592.5L652.0833333333333 1684.75A83.33333333333333 83.33333333333333 0 0 0 733.4999999999999 1750H1266.5A83.33333333333333 83.33333333333333 0 0 0 1347.8333333333333 1684.75L1407.4166666666665 1416.6666666666667z" />
    <glyph glyph-name="barricade-line"
      unicode="&#xEA7D;"
      horiz-adv-x="2000" d="M541.0833333333334 416.6666666666668H1458.9166666666665L1403.333333333333 666.6666666666667H596.6666666666666L541.0833333333334 416.6666666666668zM1629.6666666666667 416.6666666666668H1750V250H250V416.6666666666668H370.3333333333333L652.1666666666666 1684.75A83.33333333333333 83.33333333333333 0 0 0 733.4999999999999 1750H1266.5A83.33333333333333 83.33333333333333 0 0 0 1347.8333333333333 1684.75L1629.6666666666667 416.6666666666668zM633.6666666666666 833.3333333333335H1366.3333333333333L1292.1666666666665 1166.6666666666667H707.8333333333333L633.7499999999999 833.3333333333335zM744.8333333333334 1333.3333333333335H1255.1666666666667L1199.6666666666667 1583.3333333333335H800.3333333333333L744.8333333333331 1333.3333333333335z" />
    </font>
</defs>
</svg>
